Начать новую тему Ответить на тему
Статистика раздачи
Размер: 547.64 МБ | Добавлен: 26 мар 2019, 20:29 | Скачали: 1
Сидеров: 11  [0 байт/сек]    Личеров: 0  [0 байт/сек]
Пред. тема | След. тема 

Автор
Сообщение

СообщениеДобавлено: 26 мар 2019, 20:29 

Ответить с цитатой 

Jesus Culture - Come Away
Жанр: Pop-Rock, Praise & Worship
Год издания диска: 2010
Издатель (лейбл): EMI CMG
Страна: US
Аудиокодек: FLAC (*.flac)
Тип рипа: tracks+.cue
Битрейт аудио: lossless
Продолжительность: 1:17:35
Источник (релизер): Blessing
Наличие сканов в содержимом раздачи: нет
Треклист:
01. Come Away (7:47)
02. Rooftops (7:51)
03. You Are My Passion (7:00)
04. I Want to Know You (9:06)
05. My Soul Longs (7:50)
06. Freedom Reigns (7:53)
07. Let It Rain (7:00)
08. Mighty Breath of God (6:34)
09. Show Me Your Glory (7:55)
10. One Thing Remains (8:40)
Код:
Exact Audio Copy V0.99 prebeta 5 from 4. May 2009
EAC extraction logfile from 11. February 2011, 21:48
Jesus Culture / Come Away
Used drive  : MATSHITADVD+-RW UJ-875S   Adapter: 0  ID: 0
Read mode               : Secure
Utilize accurate stream : Yes
Defeat audio cache      : Yes
Make use of C2 pointers : No
Read offset correction                      : 102
Overread into Lead-In and Lead-Out          : No
Fill up missing offset samples with silence : Yes
Delete leading and trailing silent blocks   : No
Null samples used in CRC calculations       : Yes
Used interface                              : Native Win32 interface for Win NT & 2000
Gap handling                                : Appended to previous track
Used output format              : User Defined Encoder
Selected bitrate                : 320 kBit/s
Quality                         : High
Add ID3 tag                     : No
Command line compressor         : C:\Program Files (x86)\FLAC\flac.exe
Additional command line options : -V -8 -T "artist=%a" -T "title=%t" -T "album=%g" -T "date=%y" -T "tracknumber=%n" -T "genre=%m" %s
TOC of the extracted CD
     Track |   Start  |  Length  | Start sector | End sector
    ---------------------------------------------------------
        1  |  0:00.00 |  7:46.65 |         0    |    35014
        2  |  7:46.65 |  7:51.16 |     35015    |    70355
        3  | 15:38.06 |  6:59.66 |     70356    |   101846
        4  | 22:37.72 |  9:05.42 |    101847    |   142763
        5  | 31:43.39 |  7:49.57 |    142764    |   177995
        6  | 39:33.21 |  7:52.45 |    177996    |   213440
        7  | 47:25.66 |  7:00.29 |    213441    |   244969
        8  | 54:26.20 |  6:34.34 |    244970    |   274553
        9  | 61:00.54 |  7:54.47 |    274554    |   310150
       10  | 68:55.26 |  8:40.04 |    310151    |   349154
Track  1
     Filename C:\MUSIC-RIP\Jesus Culture - Come Away\01 - Come Away.wav
     Pre-gap length  0:00:02.00
     Peak level 99.8 %
     Track quality 99.9 %
     Test CRC B00DB7AE
     Copy CRC B00DB7AE
     Track not present in AccurateRip database
     Copy OK
Track  2
     Filename C:\MUSIC-RIP\Jesus Culture - Come Away\02 - Rooftops.wav
     Peak level 99.8 %
     Track quality 99.9 %
     Test CRC 17D31796
     Copy CRC 17D31796
     Track not present in AccurateRip database
     Copy OK
Track  3
     Filename C:\MUSIC-RIP\Jesus Culture - Come Away\03 - You Are My Passion.wav
     Peak level 99.8 %
     Track quality 100.0 %
     Test CRC E47CFA37
     Copy CRC E47CFA37
     Track not present in AccurateRip database
     Copy OK
Track  4
     Filename C:\MUSIC-RIP\Jesus Culture - Come Away\04 - I Want to Know You.wav
     Peak level 99.8 %
     Track quality 99.9 %
     Test CRC F34ED5A1
     Copy CRC F34ED5A1
     Track not present in AccurateRip database
     Copy OK
Track  5
     Filename C:\MUSIC-RIP\Jesus Culture - Come Away\05 - My Soul Longs.wav
     Peak level 99.8 %
     Track quality 100.0 %
     Test CRC 23ECCB6F
     Copy CRC 23ECCB6F
     Track not present in AccurateRip database
     Copy OK
Track  6
     Filename C:\MUSIC-RIP\Jesus Culture - Come Away\06 - Freedom Reigns.wav
     Peak level 99.8 %
     Track quality 100.0 %
     Test CRC 93D777CE
     Copy CRC 93D777CE
     Track not present in AccurateRip database
     Copy OK
Track  7
     Filename C:\MUSIC-RIP\Jesus Culture - Come Away\07 - Let It Rain.wav
     Peak level 99.8 %
     Track quality 99.9 %
     Test CRC E0C1DC1E
     Copy CRC E0C1DC1E
     Track not present in AccurateRip database
     Copy OK
Track  8
     Filename C:\MUSIC-RIP\Jesus Culture - Come Away\08 - Mighty Breath of God.wav
     Peak level 99.8 %
     Track quality 100.0 %
     Test CRC 23C16694
     Copy CRC 23C16694
     Track not present in AccurateRip database
     Copy OK
Track  9
     Filename C:\MUSIC-RIP\Jesus Culture - Come Away\09 - Show Me Your Glory.wav
     Peak level 99.8 %
     Track quality 100.0 %
     Test CRC 32F48B5A
     Copy CRC 32F48B5A
     Track not present in AccurateRip database
     Copy OK
Track 10
     Filename C:\MUSIC-RIP\Jesus Culture - Come Away\10 - One Thing Remains.wav
     Peak level 99.8 %
     Track quality 100.0 %
     Test CRC D23ED9F0
     Copy CRC D23ED9F0
     Track not present in AccurateRip database
     Copy OK
None of the tracks are present in the AccurateRip database
No errors occurred
End of status report
Код:
REM GENRE Christian
REM DATE 2010
REM DISCID 9B122F0A
REM COMMENT "ExactAudioCopy v0.99pb5"
PERFORMER "Jesus Culture"
TITLE "Come Away"
FILE "01 - Come Away.flac" WAVE
  TRACK 01 AUDIO
    PERFORMER "Jesus Culture"
    TITLE "Come Away"
    INDEX 01 00:00:00
FILE "02 - Rooftops.flac" WAVE
  TRACK 02 AUDIO
    PERFORMER "Jesus Culture"
    TITLE "Rooftops"
    INDEX 01 00:00:00
FILE "03 - You Are My Passion.flac" WAVE
  TRACK 03 AUDIO
    PERFORMER "Jesus Culture"
    TITLE "You Are My Passion"
    INDEX 01 00:00:00
FILE "04 - I Want to Know You.flac" WAVE
  TRACK 04 AUDIO
    PERFORMER "Jesus Culture"
    TITLE "I Want to Know You"
    INDEX 01 00:00:00
FILE "05 - My Soul Longs.flac" WAVE
  TRACK 05 AUDIO
    PERFORMER "Jesus Culture"
    TITLE "My Soul Longs"
    INDEX 01 00:00:00
FILE "06 - Freedom Reigns.flac" WAVE
  TRACK 06 AUDIO
    PERFORMER "Jesus Culture"
    TITLE "Freedom Reigns"
    INDEX 01 00:00:00
FILE "07 - Let It Rain.flac" WAVE
  TRACK 07 AUDIO
    PERFORMER "Jesus Culture"
    TITLE "Let It Rain"
    INDEX 01 00:00:00
FILE "08 - Mighty Breath of God.flac" WAVE
  TRACK 08 AUDIO
    PERFORMER "Jesus Culture"
    TITLE "Mighty Breath of God"
    INDEX 01 00:00:00
FILE "09 - Show Me Your Glory.flac" WAVE
  TRACK 09 AUDIO
    PERFORMER "Jesus Culture"
    TITLE "Show Me Your Glory"
    INDEX 01 00:00:00
FILE "10 - One Thing Remains.flac" WAVE
  TRACK 10 AUDIO
    PERFORMER "Jesus Culture"
    TITLE "One Thing Remains"
    INDEX 01 00:00:00
Код:
AUDIOCHECKER v2.0 beta (build 457) - by Dester - opdester@freemail.hu
~~~~~~~~~~~~~~~~~~~~~~~~~~~~~~~~~~
-=== DO NOT EDIT THIS FILE! ===-
Path: ...\2010 - Come Away
01 -=- 01 - Come Away.flac -=- CDDA (100%)
02 -=- 02 - Rooftops.flac -=- CDDA (100%)
03 -=- 03 - You Are My Passion.flac -=- CDDA (100%)
04 -=- 04 - I Want to Know You.flac -=- CDDA (99%)
05 -=- 05 - My Soul Longs.flac -=- CDDA (100%)
06 -=- 06 - Freedom Reigns.flac -=- CDDA (99%)
07 -=- 07 - Let It Rain.flac -=- CDDA (100%)
08 -=- 08 - Mighty Breath of God.flac -=- CDDA (100%)
09 -=- 09 - Show Me Your Glory.flac -=- CDDA (100%)
10 -=- 10 - One Thing Remains.flac -=- CDDA (100%)
Summary 99,80% CDDA
201825348


Правила, инструкции, FAQ!!!
Торрент  Добавлен [26 мар 2019, 20:29] Скачать торрент Магнет ссылка
Скачать торрент
[ Размер 23.27 КБ / Просмотров 6 ]

Статус
Проверен 
 
Размер  547.64 МБ
Приватный: Нет (DHT включён)
.torrent скачан  1
 


     Отправить личное сообщение
   
Страница 1 из 1
Показать сообщения за:  Поле сортировки  
Начать новую тему Ответить на тему


Сейчас этот форум просматривают: нет зарегистрированных пользователей и гости: 0


Вы не можете начинать темы
Вы не можете отвечать на сообщения
Вы не можете редактировать свои сообщения
Вы не можете удалять свои сообщения
Вы не можете добавлять вложения

Перейти:  
cron