Начать новую тему Ответить на тему
Статистика раздачи
Размер: 311.44 МБ | Добавлен: 26 мар 2019, 19:34 | Скачали: 0
Сидеров: 0  [0 байт/сек]    Личеров: 0  [0 байт/сек]
Пред. тема | След. тема 

Автор
Сообщение

СообщениеДобавлено: 26 мар 2019, 19:34 

Ответить с цитатой 

Prag / Premiere
Жанр: Pop-rock
Страна-производитель диска: Germany
Год издания: 2013
Издатель (лейбл): Tynska Records (Tonpool)
Страна: Germany
Аудиокодек: FLAC (*.flac)
Тип рипа: tracks+.cue
Битрейт аудио: lossless
Продолжительность: 49:19
Источник (релизер): мой рип
Наличие сканов в содержимом раздачи: нет
Треклист:
Prag - "Premiere" (2013)
Tracks: 14
Total time: 49:19
Year: 2013
Disc-ID: jazz / bd0b940e
1. Leisestreichler (instrumental) 3:00
2. Sophie Marceau 3:26
3. Zeit 4:07
4. Zweiter 2:40
5. Drehbuch 4:00
6. Vögel 3:28
7. Einfach 3:21
8. Und jeder hält die Luft an 3:31
9. Bis einer geht 2:55
10. Einkauf 3:06
11. Argumente tausendfach 3:22
12. Warten 2:25
13. Einfach 3:22
14. Ende 6:36
Код:
Exact Audio Copy V1.0 beta 3 from 29. August 2011
EAC extraction logfile from 15. October 2013, 11:58
Prag / Premiere
Used drive  : PLEXTOR CD-R   PX-W4012A   Adapter: 2  ID: 0
Read mode               : Secure
Utilize accurate stream : Yes
Defeat audio cache      : Yes
Make use of C2 pointers : No
Read offset correction                      : 98
Overread into Lead-In and Lead-Out          : No
Fill up missing offset samples with silence : Yes
Delete leading and trailing silent blocks   : No
Null samples used in CRC calculations       : Yes
Used interface                              : Native Win32 interface for Win NT & 2000
Gap handling                                : Appended to previous track
Used output format              : User Defined Encoder
Selected bitrate                : 1024 kBit/s
Quality                         : High
Add ID3 tag                     : No
Command line compressor         : C:\Program Files (x86)\Exact Audio Copy\Flac\flac.exe
Additional command line options : -V -8 -T "Genre=%genre%" -T "Artist=%artist%" -T "Title=%title%" -T "Album=%albumtitle%" -T "Date=%year%" -T "Tracknumber=%tracknr%" -T "Comment=%comment%" %source%
TOC of the extracted CD
     Track |   Start  |  Length  | Start sector | End sector
    ---------------------------------------------------------
        1  |  0:00.00 |  3:00.12 |         0    |    13511
        2  |  3:00.12 |  3:26.43 |     13512    |    29004
        3  |  6:26.55 |  4:07.38 |     29005    |    47567
        4  | 10:34.18 |  2:40.60 |     47568    |    59627
        5  | 13:15.03 |  4:00.56 |     59628    |    77683
        6  | 17:15.59 |  3:28.31 |     77684    |    93314
        7  | 20:44.15 |  3:21.26 |     93315    |   108415
        8  | 24:05.41 |  3:31.00 |    108416    |   124240
        9  | 27:36.41 |  2:55.31 |    124241    |   137396
       10  | 30:31.72 |  3:06.41 |    137397    |   151387
       11  | 33:38.38 |  3:22.17 |    151388    |   166554
       12  | 37:00.55 |  2:25.02 |    166555    |   177431
       13  | 39:25.57 |  3:22.38 |    177432    |   192619
       14  | 42:48.20 |  6:36.02 |    192620    |   222321
Track  1
     Filename C:\H\Prag flac\01 Leisestreichler.wav
     Pre-gap length  0:00:02.00
     Peak level 98.8 %
     Extraction speed 8.0 X
     Track quality 100.0 %
     Test CRC 9F44C728
     Copy CRC 9F44C728
     Accurately ripped (confidence 10)  [40DE2986]  (AR v2)
     Copy OK
Track  2
     Filename C:\H\Prag flac\02 Sophie Marceau.wav
     Peak level 98.8 %
     Extraction speed 8.8 X
     Track quality 100.0 %
     Test CRC 184EE021
     Copy CRC 184EE021
     Accurately ripped (confidence 10)  [DA0AF5D6]  (AR v2)
     Copy OK
Track  3
     Filename C:\H\Prag flac\03 Zeit.wav
     Peak level 98.8 %
     Extraction speed 9.8 X
     Track quality 100.0 %
     Test CRC AC599C52
     Copy CRC AC599C52
     Accurately ripped (confidence 10)  [14DF5699]  (AR v2)
     Copy OK
Track  4
     Filename C:\H\Prag flac\04 Zweiter.wav
     Peak level 98.8 %
     Extraction speed 10.2 X
     Track quality 100.0 %
     Test CRC 38F830B4
     Copy CRC 38F830B4
     Accurately ripped (confidence 10)  [38F2931A]  (AR v2)
     Copy OK
Track  5
     Filename C:\H\Prag flac\05 Drehbuch.wav
     Peak level 98.8 %
     Extraction speed 11.0 X
     Track quality 100.0 %
     Test CRC 33313424
     Copy CRC 33313424
     Accurately ripped (confidence 10)  [EEB810ED]  (AR v2)
     Copy OK
Track  6
     Filename C:\H\Prag flac\06 Voegel.wav
     Peak level 98.8 %
     Extraction speed 11.6 X
     Track quality 100.0 %
     Test CRC A7BC6E14
     Copy CRC A7BC6E14
     Accurately ripped (confidence 10)  [CAA547F0]  (AR v2)
     Copy OK
Track  7
     Filename C:\H\Prag flac\07 Einfach.wav
     Peak level 98.8 %
     Extraction speed 12.1 X
     Track quality 100.0 %
     Test CRC 4181E558
     Copy CRC 4181E558
     Accurately ripped (confidence 10)  [D8E700B0]  (AR v2)
     Copy OK
Track  8
     Filename C:\H\Prag flac\08 Und jeder haelt die Luft an.wav
     Peak level 98.8 %
     Extraction speed 12.5 X
     Track quality 100.0 %
     Test CRC A3B1E1BE
     Copy CRC A3B1E1BE
     Accurately ripped (confidence 10)  [7E124A71]  (AR v2)
     Copy OK
Track  9
     Filename C:\H\Prag flac\09 Bis einer geht.wav
     Peak level 98.8 %
     Extraction speed 12.9 X
     Track quality 100.0 %
     Test CRC 0C7188B5
     Copy CRC 0C7188B5
     Accurately ripped (confidence 10)  [8BAE5CF1]  (AR v2)
     Copy OK
Track 10
     Filename C:\H\Prag flac\10 Einkauf.wav
     Peak level 98.8 %
     Extraction speed 10.8 X
     Track quality 99.9 %
     Test CRC 5EF2543D
     Copy CRC 5EF2543D
     Accurately ripped (confidence 10)  [3F94646E]  (AR v2)
     Copy OK
Track 11
     Filename C:\H\Prag flac\11 Argumente tausendfach.wav
     Peak level 99.1 %
     Extraction speed 13.9 X
     Track quality 100.0 %
     Test CRC 584836E9
     Copy CRC 584836E9
     Accurately ripped (confidence 10)  [95E7B541]  (AR v2)
     Copy OK
Track 12
     Filename C:\H\Prag flac\12 Warten.wav
     Peak level 98.8 %
     Extraction speed 13.7 X
     Track quality 100.0 %
     Test CRC 0AB44A2B
     Copy CRC 0AB44A2B
     Accurately ripped (confidence 10)  [CFA28D33]  (AR v2)
     Copy OK
Track 13
     Filename C:\H\Prag flac\13 Einfach.wav
     Peak level 98.8 %
     Extraction speed 11.9 X
     Track quality 99.9 %
     Test CRC 272D4167
     Copy CRC 272D4167
     Accurately ripped (confidence 10)  [FD6310D9]  (AR v2)
     Copy OK
Track 14
     Filename C:\H\Prag flac\14 Ende.wav
     Peak level 98.8 %
     Extraction speed 11.7 X
     Track quality 99.9 %
     Test CRC F64AA532
     Copy CRC F64AA532
     Accurately ripped (confidence 10)  [AC58D65D]  (AR v2)
     Copy OK
All tracks accurately ripped
No errors occurred
End of status report
==== Log checksum 6DC12E3288FB0583551C3B4A2E554E35B004214236845CA664FCBCA97F5EF068 ====
Код:
REM GENRE Pop-rock
REM DATE 2013
REM DISCID BD0B940E
REM COMMENT "ExactAudioCopy v1.0b3"
PERFORMER "Prag"
TITLE "Premiere"
FILE "01 Leisestreichler.wav" WAVE
  TRACK 01 AUDIO
    TITLE "Leisestreichler"
    PERFORMER "Prag"
    INDEX 01 00:00:00
FILE "02 Sophie Marceau.wav" WAVE
  TRACK 02 AUDIO
    TITLE "Sophie Marceau"
    PERFORMER "Prag"
    INDEX 01 00:00:00
FILE "03 Zeit.wav" WAVE
  TRACK 03 AUDIO
    TITLE "Zeit"
    PERFORMER "Prag"
    INDEX 01 00:00:00
FILE "04 Zweiter.wav" WAVE
  TRACK 04 AUDIO
    TITLE "Zweiter"
    PERFORMER "Prag"
    INDEX 01 00:00:00
FILE "05 Drehbuch.wav" WAVE
  TRACK 05 AUDIO
    TITLE "Drehbuch"
    PERFORMER "Prag"
    INDEX 01 00:00:00
FILE "06 Voegel.wav" WAVE
  TRACK 06 AUDIO
    TITLE "Voegel"
    PERFORMER "Prag"
    INDEX 01 00:00:00
FILE "07 Einfach.wav" WAVE
  TRACK 07 AUDIO
    TITLE "Einfach"
    PERFORMER "Prag"
    INDEX 01 00:00:00
FILE "08 Und jeder haelt die Luft an.wav" WAVE
  TRACK 08 AUDIO
    TITLE "Und jeder haelt die Luft an"
    PERFORMER "Prag"
    INDEX 01 00:00:00
FILE "09 Bis einer geht.wav" WAVE
  TRACK 09 AUDIO
    TITLE "Bis einer geht"
    PERFORMER "Prag"
    INDEX 01 00:00:00
FILE "10 Einkauf.wav" WAVE
  TRACK 10 AUDIO
    TITLE "Einkauf"
    PERFORMER "Prag"
    INDEX 01 00:00:00
FILE "11 Argumente tausendfach.wav" WAVE
  TRACK 11 AUDIO
    TITLE "Argumente tausendfach"
    PERFORMER "Prag"
    INDEX 01 00:00:00
FILE "12 Warten.wav" WAVE
  TRACK 12 AUDIO
    TITLE "Warten"
    PERFORMER "Prag"
    INDEX 01 00:00:00
FILE "13 Einfach.wav" WAVE
  TRACK 13 AUDIO
    TITLE "Einfach"
    PERFORMER "Prag"
    INDEX 01 00:00:00
FILE "14 Ende.wav" WAVE
  TRACK 14 AUDIO
    TITLE "Ende"
    PERFORMER "Prag"
    INDEX 01 00:00:00
Код:
[CUETools log; Date: 15.10.2013 12:01:21; Version: 2.1.5]
[CTDB TOCID: S7qONo6l6Jlu4LaJ.Rw067ywEys-] found.
Track | CTDB Status
  1   | (20/20) Accurately ripped
  2   | (20/20) Accurately ripped
  3   | (20/20) Accurately ripped
  4   | (20/20) Accurately ripped
  5   | (20/20) Accurately ripped
  6   | (20/20) Accurately ripped
  7   | (20/20) Accurately ripped
  8   | (20/20) Accurately ripped
  9   | (20/20) Accurately ripped
 10   | (20/20) Accurately ripped
 11   | (20/20) Accurately ripped
 12   | (20/20) Accurately ripped
 13   | (20/20) Accurately ripped
 14   | (20/20) Accurately ripped
[AccurateRip ID: 00186e3b-0104ab92-bd0b940e] found.
Track   [  CRC   |   V2   ] Status
 01     [3ddcaa4a|40de2986] (03+10/13) Accurately ripped
 02     [f1d54fc9|da0af5d6] (03+10/13) Accurately ripped
 03     [11a58a11|14df5699] (03+10/13) Accurately ripped
 04     [f4897d95|38f2931a] (03+10/13) Accurately ripped
 05     [a76a3419|eeb810ed] (03+10/13) Accurately ripped
 06     [746126bb|caa547f0] (03+10/13) Accurately ripped
 07     [ebe86da7|d8e700b0] (03+10/13) Accurately ripped
 08     [4cee459a|7e124a71] (03+10/13) Accurately ripped
 09     [75223cdd|8bae5cf1] (03+10/13) Accurately ripped
 10     [ecf949e7|3f94646e] (03+10/13) Accurately ripped
 11     [afa7400e|95e7b541] (03+10/13) Accurately ripped
 12     [09ad00de|cfa28d33] (03+10/13) Accurately ripped
 13     [6d84fa06|fd6310d9] (03+10/13) Accurately ripped
 14     [14b79ec9|ac58d65d] (03+10/13) Accurately ripped
Track Peak [ CRC32  ] [W/O NULL] [  LOG   ]
 --   99,1 [B082811B] [8EA5512E]
 01   98,8 [9F44C728] [C28A3D46]   CRC32
 02   98,8 [184EE021] [41EBE0D3]   CRC32
 03   98,8 [AC599C52] [373758CE]   CRC32
 04   98,8 [38F830B4] [DC9A619E]   CRC32
 05   98,8 [33313424] [130DB857]   CRC32
 06   98,8 [A7BC6E14] [4955930E]   CRC32
 07   98,8 [4181E558] [E3FAEBCF]   CRC32
 08   98,8 [A3B1E1BE] [BB7F47A8]   CRC32
 09   98,8 [0C7188B5] [8070AB15]   CRC32
 10   98,8 [5EF2543D] [3BE1326A]   CRC32
 11   99,1 [584836E9] [704FC57C]   CRC32
 12   98,8 [0AB44A2B] [D7430477]   CRC32
 13   98,8 [272D4167] [7134F84C]   CRC32
 14   98,8 [F64AA532] [0C7858FF]   CRC32
Дополнительно:
Правила, инструкции, FAQ!!!
Торрент  Добавлен [26 мар 2019, 19:34] Скачать торрент Магнет ссылка
Скачать торрент
[ Размер 14.21 КБ / Просмотров 1 ]

Статус
Проверен 
 
Размер  311.44 МБ
Приватный: Нет (DHT включён)
.torrent скачан  0
 


     Отправить личное сообщение
   
Страница 1 из 1
Показать сообщения за:  Поле сортировки  
Начать новую тему Ответить на тему


Сейчас этот форум просматривают: нет зарегистрированных пользователей и гости: 0


Вы не можете начинать темы
Вы не можете отвечать на сообщения
Вы не можете редактировать свои сообщения
Вы не можете удалять свои сообщения
Вы не можете добавлять вложения

Перейти:  
cron