Начать новую тему Ответить на тему
Статистика раздачи
Размер: 137.91 МБ | Добавлен: 26 мар 2019, 19:50 | Скачали: 0
Сидеров: 1  [0 байт/сек]    Личеров: 0  [0 байт/сек]
Пред. тема | След. тема 

Автор
Сообщение

СообщениеДобавлено: 26 мар 2019, 19:50 

Ответить с цитатой 

Per Gessle feat. Son Of A Plumber / Pratar Med Min Müsli (Hur Det Än Verkar) / Shopping With Mother
Жанр: Pop Rock / Pop
Носитель: CDM
Страна-производитель диска (релиза): EU
Год издания: 2007
Издатель (лейбл): Elevator Entertainment AB / Capitol Records
Номер по каталогу: 50999 5 16845 2 5
Страна исполнителя (группы): Sweden
Аудиокодек: FLAC (*.flac)
Тип рипа: image+.cue
Битрейт аудио: lossless
Продолжительность: 00:13:25
Источник (релизер): рип собственного диска
Наличие сканов в содержимом раздачи: да
Треклист:
01. Pratar Med Min Müsli (Hur Det Än Verkar) (2:48)
02. Shopping With Mother (2:43)
03. Shopping With Mother (Voz Vibrante Remix) (3:57)
04. Shopping With Mother (Mother's Dub By Voz Vibrante) (3:56)
Код:
Exact Audio Copy V1.0 beta 3 from 29. August 2011
EAC extraction logfile from 18. September 2018, 23:25
Per Gessle feat. Son Of A Plumber / Pratar Med Min Müsli (Hur Det Än Verkar) / Shopping With Mother
Used drive  : ASUS    BW-16D1HT   Adapter: 2  ID: 0
Read mode               : Secure
Utilize accurate stream : Yes
Defeat audio cache      : Yes
Make use of C2 pointers : No
Read offset correction                      : 6
Overread into Lead-In and Lead-Out          : No
Fill up missing offset samples with silence : Yes
Delete leading and trailing silent blocks   : No
Null samples used in CRC calculations       : Yes
Used interface                              : Native Win32 interface for Win NT & 2000
Used output format              : User Defined Encoder
Selected bitrate                : 128 kBit/s
Quality                         : High
Add ID3 tag                     : No
Command line compressor         : C:\Program Files (x86)\Exact Audio Copy\Flac\flac.exe
Additional command line options : -V -8 -T "Genre=%genre%" -T "Artist=%artist%" -T "Title=%title%" -T "Album=%albumtitle%" -T "Date=%year%" -T "Tracknumber=%tracknr%" -T "Comment=%comment%" %source%
TOC of the extracted CD
     Track |   Start  |  Length  | Start sector | End sector
    ---------------------------------------------------------
        1  |  0:00.00 |  2:48.37 |         0    |    12636
        2  |  2:48.37 |  2:43.32 |     12637    |    24893
        3  |  5:31.69 |  3:57.01 |     24894    |    42669
        4  |  9:28.70 |  3:56.33 |     42670    |    60402
Range status and errors
Selected range
     Filename D:\2007 - Pratar Med Min Musli (Hur Det An Verkar) -Shopping With Mother (50999 5 16845 2 5)\Per Gessle feat. Son Of A Plumber - Pratar Med Min Musli (Hur Det An Verkar) -Shopping With Mother (50999 5 16845 2 5) (2007).wav
     Peak level 100.0 %
     Extraction speed 6.0 X
     Range quality 100.0 %
     Test CRC F9642E50
     Copy CRC F9642E50
     Copy OK
No errors occurred
AccurateRip summary
Track  1  accurately ripped (confidence 1)  [03EDD2FD]  (AR v2)
Track  2  accurately ripped (confidence 1)  [8C7B2674]  (AR v2)
Track  3  accurately ripped (confidence 1)  [24F42184]  (AR v2)
Track  4  accurately ripped (confidence 1)  [DE3C852A]  (AR v2)
All tracks accurately ripped
End of status report
==== Log checksum 85EC0DF652F39D56F91963199E19EC1AD90E374BA30A93517A92624EA02BEBAC ====
Код:
REM GENRE Pop
REM DATE 2007
REM DISCID 1F032504
REM COMMENT "ExactAudioCopy v1.0b3"
PERFORMER "Per Gessle feat. Son Of A Plumber"
TITLE "Pratar Med Min Musli (Hur Det An Verkar) / Shopping With Mother"
FILE "Per Gessle feat. Son Of A Plumber - Pratar Med Min Musli (Hur Det An Verkar) - Shopping With Mother (50999 5 16845 2 5) (2007).flac" WAVE
  TRACK 01 AUDIO
    TITLE "Pratar Med Min Musli (Hur Det An Verkar)"
    PERFORMER "Per Gessle"
    ISRC SEVWA0700240
    INDEX 01 00:00:00
  TRACK 02 AUDIO
    TITLE "Shopping With Mother"
    PERFORMER "Per Gessle feat. Son Of A Plumber"
    ISRC SEVWA0700241
    INDEX 01 02:48:37
  TRACK 03 AUDIO
    TITLE "Shopping With Mother (Voz Vibrante Remix)"
    PERFORMER "Per Gessle feat. Son Of A Plumber"
    ISRC SEVWA0700242
    INDEX 01 05:31:69
  TRACK 04 AUDIO
    TITLE "Shopping With Mother (Mother's Dub By Voz Vibrante)"
    PERFORMER "Per Gessle feat. Son Of A Plumber"
    ISRC SEVWA0700243
    INDEX 01 09:28:70
Пер Хо́кан Ге́ссле (швед. Per Håkan Gessle; 12 января 1959 года, Хальмстад, Халланд, Швеция) — шведский музыкант-мультиинструменталист, композитор, продюсер, автор песен и вокалист групп Gyllene Tider, Roxette и других.
Правила, инструкции, FAQ!!!
Торрент  Добавлен [26 мар 2019, 19:50] Скачать торрент Магнет ссылка
Скачать торрент
[ Размер 2.66 КБ / Просмотров 5 ]

Статус
Проверен 
 
Размер  137.91 МБ
Приватный: Нет (DHT включён)
.torrent скачан  0
 


     Отправить личное сообщение
   
Страница 1 из 1
Показать сообщения за:  Поле сортировки  
Начать новую тему Ответить на тему


Сейчас этот форум просматривают: нет зарегистрированных пользователей и гости: 0


Вы не можете начинать темы
Вы не можете отвечать на сообщения
Вы не можете редактировать свои сообщения
Вы не можете удалять свои сообщения
Вы не можете добавлять вложения

Перейти:  
cron