Начать новую тему Ответить на тему
Статистика раздачи
Размер: 209.95 МБ | Добавлен: 05 май 2020, 10:43 | Скачали: 0
Сидеров: 0  [0 байт/сек]    Личеров: 0  [0 байт/сек]
Пред. тема | След. тема 

Автор
Сообщение

СообщениеДобавлено: 05 май 2020, 10:43 

Ответить с цитатой 

Alice Phoebe Lou / Orbit
Жанр: Pop-Rock, Pop
Носитель: WEB Qobuz
Год издания: 2016
Издатель (лейбл): Alice Phoebe Lou
Страна исполнителя (группы): South Africa
Аудиокодек: FLAC (*.flac)
Тип рипа: tracks
Продолжительность: 37:39
Источник: собственная покупка
Наличие сканов в содержимом раздачи: нет
Треклист:
01. Girl on an Island
02. Society
03. Red
04. Take Flight
05. Haruki
06. Walking in the Garden
07. Amsterdam
08. Orbit
09. The City Sleeps
Код:
foobar2000 1.5.3 / Dynamic Range Meter 1.1.1
log date: 2020-05-02 00:54:17
--------------------------------------------------------------------------------
Analyzed: Alice Phoebe Lou / Orbit
--------------------------------------------------------------------------------
DR         Peak         RMS     Duration Track
--------------------------------------------------------------------------------
DR7       -0.05 dB    -9.63 dB      4:35 ?-01 Girl on an Island
DR7       -0.05 dB    -9.40 dB      3:53 ?-02 Society
DR6       -0.03 dB    -9.11 dB      4:59 ?-03 Red
DR7       -0.06 dB    -9.80 dB      2:19 ?-04 Take Flight
DR7       -0.08 dB   -10.65 dB      3:17 ?-05 Haruki
DR6       -0.06 dB    -8.32 dB      4:42 ?-06 Walking in the Garden
DR6       -0.01 dB    -9.69 dB      3:43 ?-07 Amsterdam
DR6        0.00 dB    -9.22 dB      6:27 ?-08 Orbit
DR7       -0.04 dB   -10.03 dB      3:44 ?-09 The City Sleeps
--------------------------------------------------------------------------------
Number of tracks:  9
Official DR value: DR7
Samplerate:        44100 Hz
Channels:          2
Bits per sample:   16
Bitrate:           683 kbps
Codec:             FLAC
================================================================================
Правила, инструкции, FAQ!!!
Торрент  Добавлен [05 май 2020, 10:43] Скачать торрент Магнет ссылка
Скачать торрент
[ Размер 17.28 КБ / Просмотров 7 ]

Статус
Проверен 
 
Размер  209.95 МБ
Приватный: Нет (DHT включён)
.torrent скачан  0
 


     Отправить личное сообщение
   
Страница 1 из 1
Показать сообщения за:  Поле сортировки  
Начать новую тему Ответить на тему


Сейчас этот форум просматривают: нет зарегистрированных пользователей и гости: 0


Вы не можете начинать темы
Вы не можете отвечать на сообщения
Вы не можете редактировать свои сообщения
Вы не можете удалять свои сообщения
Вы не можете добавлять вложения

Перейти:  
cron