Начать новую тему Ответить на тему
Статистика раздачи
Размер: 285.97 МБ | Добавлен: 26 мар 2019, 19:11 | Скачали: 0
Сидеров: 0  [0 байт/сек]    Личеров: 0  [0 байт/сек]
Пред. тема | След. тема 

Автор
Сообщение

СообщениеДобавлено: 26 мар 2019, 19:11 

Ответить с цитатой 

PMMP - Rakkaudesta
Жанр: Pop-Rock
Страна-производитель диска: Финляндия
Год издания: 2012
Издатель (лейбл): Sony Music Entertainment
Страна: Финляндия
Аудиокодек: FLAC (*.flac)
Тип рипа: tracks+.cue
Битрейт аудио: lossless
Продолжительность: 00:41:18
Источник (релизер): Собственный CD
Наличие сканов в содержимом раздачи: да
Треклист:
01. 4ever Young (3:38)
02. Korkeasaari (3:08)
03. Heliumpallo (4:26)
04. Koko Show (3:27)
05. Jeesus Ei Tule Oletko Valmis (4:47)
06. Rakkaalleni (4:50)
07. Tytöt (4:34)
08. Pahvinaamari (4:09)
09. Kevään Valo (4:19)
10. Toivo (3:59)
Код:
Exact Audio Copy V0.99 prebeta 5 from 4. May 2009
EAC extraction logfile from 26. June 2012, 0:43
PMMP / Rakkaudesta
Used drive  : hp      DVDRAM GT31L   Adapter: 0  ID: 1
Read mode               : Secure
Utilize accurate stream : Yes
Defeat audio cache      : Yes
Make use of C2 pointers : No
Read offset correction                      : 103
Overread into Lead-In and Lead-Out          : No
Fill up missing offset samples with silence : Yes
Delete leading and trailing silent blocks   : No
Null samples used in CRC calculations       : Yes
Used interface                              : Native Win32 interface for Win NT & 2000
Gap handling                                : Appended to previous track
Used output format              : User Defined Encoder
Selected bitrate                : 320 kBit/s
Quality                         : High
Add ID3 tag                     : No
Command line compressor         : C:\Program Files (x86)\Exact Audio Copy\Flac\flac.exe
Additional command line options : -V -8 -T "artist=%a" -T "title=%t" -T "album=%g" -T "date=%y" -T "tracknumber=%n" -T "genre=%m" %s
TOC of the extracted CD
     Track |   Start  |  Length  | Start sector | End sector
    ---------------------------------------------------------
        1  |  0:00.00 |  3:37.49 |         0    |    16323
        2  |  3:37.49 |  3:08.10 |     16324    |    30433
        3  |  6:45.59 |  4:26.31 |     30434    |    50414
        4  | 11:12.15 |  3:26.64 |     50415    |    65928
        5  | 14:39.04 |  4:47.18 |     65929    |    87471
        6  | 19:26.22 |  4:50.24 |     87472    |   109245
        7  | 24:16.46 |  4:33.56 |    109246    |   129776
        8  | 28:50.27 |  4:09.22 |    129777    |   148473
        9  | 32:59.49 |  4:19.16 |    148474    |   167914
       10  | 37:18.65 |  3:59.19 |    167915    |   185858
Track  1
     Filename C:\EAC\01 - 4ever young.wav
     Pre-gap length  0:00:02.00
     Peak level 97.7 %
     Track quality 100.0 %
     Test CRC 4AA70313
     Copy CRC 4AA70313
     Track not present in AccurateRip database
     Copy OK
Track  2
     Filename C:\EAC\02 - Korkeasaari.wav
     Peak level 97.4 %
     Track quality 100.0 %
     Test CRC A4C689FB
     Copy CRC A4C689FB
     Track not present in AccurateRip database
     Copy OK
Track  3
     Filename C:\EAC\03 - Heliumpallo.wav
     Peak level 98.4 %
     Track quality 100.0 %
     Test CRC C8B4D6E9
     Copy CRC C8B4D6E9
     Track not present in AccurateRip database
     Copy OK
Track  4
     Filename C:\EAC\04 - Koko show.wav
     Peak level 100.0 %
     Track quality 99.9 %
     Test CRC 77DCC1B9
     Copy CRC 77DCC1B9
     Track not present in AccurateRip database
     Copy OK
Track  5
     Filename C:\EAC\05 - Jeesus ei tule oletko valmis.wav
     Peak level 99.9 %
     Track quality 99.9 %
     Test CRC EFB1D072
     Copy CRC EFB1D072
     Track not present in AccurateRip database
     Copy OK
Track  6
     Filename C:\EAC\06 - Rakkaalleni.wav
     Peak level 100.0 %
     Track quality 100.0 %
     Test CRC AB24CB1B
     Copy CRC AB24CB1B
     Track not present in AccurateRip database
     Copy OK
Track  7
     Filename C:\EAC\07 - Tytot.wav
     Peak level 98.3 %
     Track quality 100.0 %
     Test CRC F28EAF65
     Copy CRC F28EAF65
     Track not present in AccurateRip database
     Copy OK
Track  8
     Filename C:\EAC\08 - Pahvinaamari.wav
     Peak level 97.7 %
     Track quality 100.0 %
     Test CRC 25F83B21
     Copy CRC 25F83B21
     Track not present in AccurateRip database
     Copy OK
Track  9
     Filename C:\EAC\09 - Kevaan valo.wav
     Peak level 100.0 %
     Track quality 100.0 %
     Test CRC 20094767
     Copy CRC 20094767
     Track not present in AccurateRip database
     Copy OK
Track 10
     Filename C:\EAC\10 - Toivo.wav
     Peak level 97.6 %
     Track quality 100.0 %
     Test CRC 0920BF91
     Copy CRC 0920BF91
     Track not present in AccurateRip database
     Copy OK
None of the tracks are present in the AccurateRip database
No errors occurred
End of status report
REM GENRE Pop
REM DATE 2012
REM DISCID 8509AE0A
REM COMMENT "ExactAudioCopy v0.99pb5"
FILE "01 - 4ever young.wav" WAVE
TRACK 01 AUDIO
INDEX 01 00:00:00
FILE "02 - Korkeasaari.wav" WAVE
TRACK 02 AUDIO
INDEX 01 00:00:00
FILE "03 - Heliumpallo.wav" WAVE
TRACK 03 AUDIO
INDEX 01 00:00:00
FILE "04 - Koko show.wav" WAVE
TRACK 04 AUDIO
INDEX 01 00:00:00
FILE "05 - Jeesus ei tule oletko valmis.wav" WAVE
TRACK 05 AUDIO
INDEX 01 00:00:00
FILE "06 - Rakkaalleni.wav" WAVE
TRACK 06 AUDIO
INDEX 01 00:00:00
FILE "07 - Tytot.wav" WAVE
TRACK 07 AUDIO
INDEX 01 00:00:00
FILE "08 - Pahvinaamari.wav" WAVE
TRACK 08 AUDIO
INDEX 01 00:00:00
FILE "09 - Kevaan valo.wav" WAVE
TRACK 09 AUDIO
INDEX 01 00:00:00
FILE "10 - Toivo.wav" WAVE
TRACK 10 AUDIO
INDEX 01 00:00:00[/pre]
Правила, инструкции, FAQ!!!
Торрент  Добавлен [26 мар 2019, 19:11] Скачать торрент Магнет ссылка
Скачать торрент
[ Размер 12.57 КБ / Просмотров 5 ]

Статус
Проверен 
 
Размер  285.97 МБ
Приватный: Нет (DHT включён)
.torrent скачан  0
 


     Отправить личное сообщение
   
Страница 1 из 1
Показать сообщения за:  Поле сортировки  
Начать новую тему Ответить на тему


Сейчас этот форум просматривают: нет зарегистрированных пользователей и гости: 0


Вы не можете начинать темы
Вы не можете отвечать на сообщения
Вы не можете редактировать свои сообщения
Вы не можете удалять свои сообщения
Вы не можете добавлять вложения

Перейти:  
cron