Начать новую тему Ответить на тему
Статистика раздачи
Размер: 172.68 МБ | Добавлен: 26 мар 2019, 19:16 | Скачали: 0
Сидеров: 0  [0 байт/сек]    Личеров: 0  [0 байт/сек]
Пред. тема | След. тема 

Автор
Сообщение

СообщениеДобавлено: 26 мар 2019, 19:16 

Ответить с цитатой 

Plastiscines - LP1
Жанр: Pop Rock
Год выпуска диска: 2007
Производитель диска: Франция
Аудио кодек: APE
Тип рипа: image+.cue
Битрейт аудио: lossless
Продолжительность: 26:35
Трэклист:

01. Alchimie
02. Loser
03. Shake (Twist Around The Fire)
04. Mister Driver
05. La Règle Du Jeu
06. (Zazie Fait De La) Bicyclette
07. No Way
08. Pop In, Pop Out!
09. Rake
10. Tu As Tout Prévu
11. Human Rights
12. Lost In Translation
13. Under Control

Label: Virgin Music
Exact Audio Copy V0.99 prebeta 4 from 23. January 2008
Отчёт EAC об извлечении, выполненном 13. февраля 2010, 10:24
Plastiscines / LP1
Дисковод: PLEXTOR DVDR PX-800A Adapter: 0 ID: 0
Режим чтения : Достоверность
Использование точного потока : Да
Отключение кэша аудио : Да
Использование указателей C2 : Нет
Коррекция смещения при чтении : 48
Способность читать области Lead-in и Lead-out : Нет
Заполнение пропущенных сэмплов тишиной : Да
Удаление блоков с тишиной в начале и конце : Нет
При вычислениях CRC использовались нулевые сэмплы : Да
Интерфейс : Установленный внешний ASPI-интерфейс
Выходной формат : Пользовательский кодировщик
Выбранный битрейт : 192 kBit/s
Качество : Высокий
Добавление ID3-тэга : Да
Утилита сжатия : D:\Games\Exact Audio Copy\wapet.exe
Дополнительные параметры : %d -t "Artist=%a" -t "Title=%t" -t "Album=%g" -t "Year=%y" -t "Track=%n" -t "Genre=%m" "C:\Program Files (x86)\Monkey's Audio\MAC.exe" %s %d -c4000
TOC извлечённого CD
Трек | Старт | Длительность | Начальный сектор | Конечный сектор
---------------------------------------------------------------------
1 | 0:00.00 | 1:28.58 | 0 | 6657
2 | 1:28.58 | 2:18.30 | 6658 | 17037
3 | 3:47.13 | 1:58.16 | 17038 | 25903
4 | 5:45.29 | 2:15.23 | 25904 | 36051
5 | 8:00.52 | 2:51.29 | 36052 | 48905
6 | 10:52.06 | 2:22.06 | 48906 | 59561
7 | 13:14.12 | 1:57.59 | 59562 | 68395
8 | 15:11.71 | 1:10.65 | 68396 | 73710
9 | 16:22.61 | 1:53.48 | 73711 | 82233
10 | 18:16.34 | 2:38.46 | 82234 | 94129
11 | 20:55.05 | 1:59.53 | 94130 | 103107
12 | 22:54.58 | 1:48.19 | 103108 | 111226
13 | 24:43.02 | 1:52.38 | 111227 | 119664
Характеристики диапазона извлечения и сообщения об ошибках
Выбранный диапазон
Имя файла D:\Music\Современные\Plastiscines - LP1\Plastiscines - LP1.wav
Подозрительная позиция 0:15:25 - 0:15:28
Подозрительная позиция 0:15:30 - 0:15:34
Подозрительная позиция 0:15:36 - 0:15:42
Подозрительная позиция 0:15:44 - 0:15:48
Подозрительная позиция 0:15:50
Подозрительная позиция 0:21:05
Пиковый уровень 98.0 %
Качество диапазона 98.5 %
CRC теста 673B1553
CRC копии 1A863505
Копирование завершено
Были ошибки
AccurateRip: сводка
Трек 1 точное извлечение (доверие 5) [6B9BA2C0]
Трек 2 точное извлечение (доверие 5) [CEF98BBB]
Трек 3 точное извлечение (доверие 5) [793B369E]
Трек 4 точное извлечение (доверие 5) [2C498E64]
Трек 5 точное извлечение (доверие 5) [D4D0C75B]
Трек 6 точное извлечение (доверие 5) [8760E0A3]
Трек 7 точное извлечение (доверие 5) [1C6CB119]
Трек 8 точность не определена (достоверность 5) [A241458E], AccurateRip вернул [9096CD53]
Трек 9 точное извлечение (доверие 5) [897CC8B7]
Трек 10 точность не определена (достоверность 5) [A2636C39], AccurateRip вернул [82F03C7A]
Трек 11 точное извлечение (доверие 5) [8CF9EE02]
Трек 12 точное извлечение (доверие 5) [CEA48987]
Трек 13 точное извлечение (доверие 5) [6B0B767B]
11 трек(и) скопированы точно
2 трек(и) не удалось проверить на точность
Некоторые треки не прошли проверку на точность
Конец отчёта
Правила, инструкции, FAQ!!!
Торрент  Добавлен [26 мар 2019, 19:16] Скачать торрент Магнет ссылка
Скачать торрент
[ Размер 14.07 КБ / Просмотров 2 ]

Статус
Проверен 
 
Размер  172.68 МБ
Приватный: Нет (DHT включён)
.torrent скачан  0
 


     Отправить личное сообщение
   
Страница 1 из 1
Показать сообщения за:  Поле сортировки  
Начать новую тему Ответить на тему


Сейчас этот форум просматривают: нет зарегистрированных пользователей и гости: 0


Вы не можете начинать темы
Вы не можете отвечать на сообщения
Вы не можете редактировать свои сообщения
Вы не можете удалять свои сообщения
Вы не можете добавлять вложения

Перейти:  
cron