Начать новую тему Ответить на тему
Статистика раздачи
Размер: 326.41 МБ | Добавлен: 26 мар 2019, 20:04 | Скачали: 0
Сидеров: 0  [0 байт/сек]    Личеров: 0  [0 байт/сек]
Пред. тема | След. тема 

Автор
Сообщение

СообщениеДобавлено: 26 мар 2019, 20:04 

Ответить с цитатой 

Plain White T's - Every Second Counts (Deluxe Edition)
Жанр: soft rock
Год выпуска диска: 2006
Производитель диска: USA
Аудио кодек: FLAC
Тип рипа: tracks+.cue
Битрейт аудио: lossless
Трэклист:1. "Hey There Delilah" - 3:53
2. "Our Time Now" - 2:50
3. "Come Back to Me" - 3:23
4. "Hate (I Really Don't Like You)" - 3:47
5. "You and Me" - 2:18
6. "Friends Don't Let Friends Dial Drunk" - 3:22
7. "Making a Memory" - 2:49
8. "So Damn Clever" - 3:03
9. "Tearin' Us Apart" - 2:36
10. "Write You a Song" - 4:01
11. "Gimme a Chance" - 2:57
12. "Figure It Out" - 2:45
13. "Let Me Take You There" - 3:46
14. "Take Me Away" - 2:42
Exact Audio Copy V0.99 prebeta 3 from 28. July 2007
EAC extraction logfile from 23. February 2008, 15:50
Plain White T's / Every Second Counts (Deluxe Edition)
Used drive : PIONEER DVD-RW DVR-108 Adapter: 0 ID: 0
Read mode : Secure
Utilize accurate stream : Yes
Defeat audio cache : Yes
Make use of C2 pointers : No
Read offset correction : 48
Overread into Lead-In and Lead-Out : No
Fill up missing offset samples with silence : Yes
Delete leading and trailing silent blocks : No
Null samples used in CRC calculations : No
Used interface : Native Win32 interface for Win NT & 2000
Gap handling : Appended to previous track
Used output format : User Defined Encoder
Selected bitrate : 1024 kBit/s
Quality : High
Add ID3 tag : No
Command line compressor : C:\Program Files\FLAC\flac.exe
Additional command line options : --best -T "artist=%a" -T "title=%t" -T "album=%g" -T "tracknumber=%n" -T comment="%e" -T "date=%y" %s
TOC of the extracted CD
Track | Start | Length | Start sector | End sector
---------------------------------------------------------
1 | 0:00.00 | 3:52.65 | 0 | 17464
2 | 3:52.65 | 2:50.16 | 17465 | 30230
3 | 6:43.06 | 3:23.35 | 30231 | 45490
4 | 10:06.41 | 3:44.65 | 45491 | 62355
5 | 13:51.31 | 2:18.19 | 62356 | 72724
6 | 16:09.50 | 3:22.01 | 72725 | 87875
7 | 19:31.51 | 2:49.27 | 87876 | 100577
8 | 22:21.03 | 3:03.00 | 100578 | 114302
9 | 25:24.03 | 2:36.37 | 114303 | 126039
10 | 28:00.40 | 4:01.58 | 126040 | 144172
11 | 32:02.23 | 2:57.50 | 144173 | 157497
12 | 34:59.73 | 2:45.14 | 157498 | 169886
13 | 37:45.12 | 3:46.58 | 169887 | 186894
14 | 41:31.70 | 2:41.50 | 186895 | 199019
15 | 46:45.45 | 0:44.10 | 210420 | 213729
Track 1
Filename G:\incoming\EAC\FLAC\Plain White T's\Every Second Counts (Deluxe Edition)\Plain White T's - Every Second Counts (Deluxe Edition) - 01 - Hey There Delilah.wav
Pre-gap length 0:00:02.00
Peak level 99.8 %
Track quality 100.0 %
Test CRC C4296EA4
Copy CRC C4296EA4
Accurately ripped (confidence 1) [7C41E074]
Copy OK
Track 2
Filename G:\incoming\EAC\FLAC\Plain White T's\Every Second Counts (Deluxe Edition)\Plain White T's - Every Second Counts (Deluxe Edition) - 02 - Our Time Now.wav
Pre-gap length 0:00:00.67
Peak level 100.0 %
Track quality 100.0 %
Test CRC C2C5F920
Copy CRC C2C5F920
Accurately ripped (confidence 1) [5B26FFCD]
Copy OK
Track 3
Filename G:\incoming\EAC\FLAC\Plain White T's\Every Second Counts (Deluxe Edition)\Plain White T's - Every Second Counts (Deluxe Edition) - 03 - Come Back To Me.wav
Peak level 100.0 %
Track quality 100.0 %
Test CRC 8A2F5102
Copy CRC 8A2F5102
Accurately ripped (confidence 1) [29DC00AA]
Copy OK
Track 4
Filename G:\incoming\EAC\FLAC\Plain White T's\Every Second Counts (Deluxe Edition)\Plain White T's - Every Second Counts (Deluxe Edition) - 04 - Hate (I Really Don't Like You).wav
Peak level 100.0 %
Track quality 100.0 %
Test CRC 7BFC5DD3
Copy CRC 7BFC5DD3
Accurately ripped (confidence 1) [64FE748B]
Copy OK
Track 5
Filename G:\incoming\EAC\FLAC\Plain White T's\Every Second Counts (Deluxe Edition)\Plain White T's - Every Second Counts (Deluxe Edition) - 05 - You And Me.wav
Peak level 99.9 %
Track quality 100.0 %
Test CRC A5AE1B70
Copy CRC A5AE1B70
Accurately ripped (confidence 1) [A6BE0386]
Copy OK
Track 6
Filename G:\incoming\EAC\FLAC\Plain White T's\Every Second Counts (Deluxe Edition)\Plain White T's - Every Second Counts (Deluxe Edition) - 06 - Friends Don't Let Friends Dial Drunk.wav
Peak level 100.0 %
Track quality 100.0 %
Test CRC CE9DB385
Copy CRC CE9DB385
Accurately ripped (confidence 1) [3C93FA8F]
Copy OK
Track 7
Filename G:\incoming\EAC\FLAC\Plain White T's\Every Second Counts (Deluxe Edition)\Plain White T's - Every Second Counts (Deluxe Edition) - 07 - Making A Memory.wav
Peak level 100.0 %
Track quality 99.9 %
Test CRC 9CC5375F
Copy CRC 9CC5375F
Accurately ripped (confidence 1) [9FF17B18]
Copy OK
Track 8
Filename G:\incoming\EAC\FLAC\Plain White T's\Every Second Counts (Deluxe Edition)\Plain White T's - Every Second Counts (Deluxe Edition) - 08 - So Damn Clever.wav
Peak level 100.0 %
Track quality 100.0 %
Test CRC 42E8500C
Copy CRC 42E8500C
Accurately ripped (confidence 1) [31D0F9CB]
Copy OK
Track 9
Filename G:\incoming\EAC\FLAC\Plain White T's\Every Second Counts (Deluxe Edition)\Plain White T's - Every Second Counts (Deluxe Edition) - 09 - Tearin' Us Apart.wav
Peak level 100.0 %
Track quality 100.0 %
Test CRC AADF191A
Copy CRC AADF191A
Accurately ripped (confidence 1) [356565DE]
Copy OK
Track 10
Filename G:\incoming\EAC\FLAC\Plain White T's\Every Second Counts (Deluxe Edition)\Plain White T's - Every Second Counts (Deluxe Edition) - 10 - Write You A Song.wav
Peak level 100.0 %
Track quality 100.0 %
Test CRC 3D278B4F
Copy CRC 3D278B4F
Accurately ripped (confidence 1) [182F684B]
Copy OK
Track 11
Filename G:\incoming\EAC\FLAC\Plain White T's\Every Second Counts (Deluxe Edition)\Plain White T's - Every Second Counts (Deluxe Edition) - 11 - Gimme A Chance.wav
Peak level 100.0 %
Track quality 99.9 %
Test CRC BA9614A8
Copy CRC BA9614A8
Accurately ripped (confidence 1) [7D1DA409]
Copy OK
Track 12
Filename G:\incoming\EAC\FLAC\Plain White T's\Every Second Counts (Deluxe Edition)\Plain White T's - Every Second Counts (Deluxe Edition) - 12 - Figure It Out.wav
Peak level 100.0 %
Track quality 100.0 %
Test CRC 9056BE46
Copy CRC 9056BE46
Accurately ripped (confidence 1) [B1F2171B]
Copy OK
Track 13
Filename G:\incoming\EAC\FLAC\Plain White T's\Every Second Counts (Deluxe Edition)\Plain White T's - Every Second Counts (Deluxe Edition) - 13 - Let Me Take You There.wav
Peak level 99.9 %
Track quality 99.9 %
Test CRC ED10C475
Copy CRC ED10C475
Accurately ripped (confidence 1) [47ED8F02]
Copy OK
Track 14
Filename G:\incoming\EAC\FLAC\Plain White T's\Every Second Counts (Deluxe Edition)\Plain White T's - Every Second Counts (Deluxe Edition) - 14 - Take Me Away.wav
Pre-gap length 0:00:00.31
Peak level 96.6 %
Track quality 100.0 %
Test CRC 6185A30D
Copy CRC 6185A30D
Accurately ripped (confidence 1) [08DD6E09]
Copy OK
All tracks accurately ripped
No errors occurred
End of status report
Правила, инструкции, FAQ!!!
Торрент  Добавлен [26 мар 2019, 20:04] Скачать торрент Магнет ссылка
Скачать торрент
[ Размер 15.01 КБ / Просмотров 8 ]

Статус
Проверен 
 
Размер  326.41 МБ
Приватный: Нет (DHT включён)
.torrent скачан  0
 


     Отправить личное сообщение
   
Страница 1 из 1
Показать сообщения за:  Поле сортировки  
Начать новую тему Ответить на тему


Сейчас этот форум просматривают: нет зарегистрированных пользователей и гости: 0


Вы не можете начинать темы
Вы не можете отвечать на сообщения
Вы не можете редактировать свои сообщения
Вы не можете удалять свои сообщения
Вы не можете добавлять вложения

Перейти:  
cron