Начать новую тему Ответить на тему
Статистика раздачи
Размер: 240.88 МБ | Добавлен: 26 мар 2019, 19:39 | Скачали: 0
Сидеров: 0  [0 байт/сек]    Личеров: 0  [0 байт/сек]
Пред. тема | След. тема 

Автор
Сообщение

СообщениеДобавлено: 26 мар 2019, 19:39 

Ответить с цитатой 

Plain White T's - Big Bad World
Жанр: Pop-Rock
Год выпуска диска: 2008
Производитель диска: USA
Аудио кодек: FLAC
Тип рипа: tracks+.cue
Битрейт аудио: lossless
Продолжительность: 33:57
Трэклист:1. "Big Bad World" - 3:07
2. "Natural Disaster" - 3:40
3. "Serious Mistake" - 3:32
4. "Rainy Day" - 3:11
5. "1, 2, 3, 4" - 3:18
6. "That Girl" - 3:07
7. "Sunlight" - 3:50
8. "I Really Want You" - 2:58
9. "Meet Me in California" - 3:34
10. "Someday" - 3:40
Exact Audio Copy V0.99 prebeta 3 from 28. July 2007
EAC extraction logfile from 31. December 2008, 13:49
Plain White T's / Big Bad World
Used drive : LITE-ON DVDRW LH-20A1L Adapter: 0 ID: 1
Read mode : Secure
Utilize accurate stream : Yes
Defeat audio cache : Yes
Make use of C2 pointers : No
Read offset correction : 6
Overread into Lead-In and Lead-Out : No
Fill up missing offset samples with silence : Yes
Delete leading and trailing silent blocks : No
Null samples used in CRC calculations : Yes
Used interface : Native Win32 interface for Win NT & 2000
Gap handling : Appended to previous track
Used output format : User Defined Encoder
Selected bitrate : 128 kBit/s
Quality : High
Add ID3 tag : No
Command line compressor : C:\Program Files\Exact Audio Copy\flac.exe
Additional command line options : -V -8 -T "artist=%a" -T "title=%t" -T "album=%g" -T "date=%y" -T "tracknumber=%n" -T "genre=%m" %s
TOC of the extracted CD
Track | Start | Length | Start sector | End sector
---------------------------------------------------------
1 | 0:00.00 | 3:07.36 | 0 | 14060
2 | 3:07.36 | 3:40.44 | 14061 | 30604
3 | 6:48.05 | 3:32.04 | 30605 | 46508
4 | 10:20.09 | 3:11.40 | 46509 | 60873
5 | 13:31.49 | 3:18.27 | 60874 | 75750
6 | 16:50.01 | 3:07.46 | 75751 | 89821
7 | 19:57.47 | 3:50.31 | 89822 | 107102
8 | 23:48.03 | 2:58.01 | 107103 | 120453
9 | 26:46.04 | 3:34.71 | 120454 | 136574
10 | 30:21.00 | 3:40.29 | 136575 | 153103
11 | 36:33.29 | 1:32.55 | 164504 | 171458
Track 1
Filename H:\FLAC\Plain White T's\Plain White T's - 2008 - Big Bad World\01 - Plain White T's - Big Bad World.wav
Pre-gap length 0:00:02.00
Peak level 100.0 %
Track quality 100.0 %
Test CRC 03B03DC1
Copy CRC 03B03DC1
Track not present in AccurateRip database
Copy OK
Track 2
Filename H:\FLAC\Plain White T's\Plain White T's - 2008 - Big Bad World\02 - Plain White T's - Natural Disaster.wav
Peak level 100.0 %
Track quality 100.0 %
Test CRC 601D9D77
Copy CRC 601D9D77
Track not present in AccurateRip database
Copy OK
Track 3
Filename H:\FLAC\Plain White T's\Plain White T's - 2008 - Big Bad World\03 - Plain White T's - Serious Mistake.wav
Peak level 100.0 %
Track quality 100.0 %
Test CRC E44E4474
Copy CRC E44E4474
Track not present in AccurateRip database
Copy OK
Track 4
Filename H:\FLAC\Plain White T's\Plain White T's - 2008 - Big Bad World\04 - Plain White T's - Rainy Day.wav
Peak level 100.0 %
Track quality 100.0 %
Test CRC 9ED886BC
Copy CRC 9ED886BC
Track not present in AccurateRip database
Copy OK
Track 5
Filename H:\FLAC\Plain White T's\Plain White T's - 2008 - Big Bad World\05 - Plain White T's - 1, 2, 3, 4.wav
Peak level 100.0 %
Track quality 100.0 %
Test CRC A79EC248
Copy CRC A79EC248
Track not present in AccurateRip database
Copy OK
Track 6
Filename H:\FLAC\Plain White T's\Plain White T's - 2008 - Big Bad World\06 - Plain White T's - That Girl.wav
Peak level 100.0 %
Track quality 99.9 %
Test CRC 77855741
Copy CRC 77855741
Track not present in AccurateRip database
Copy OK
Track 7
Filename H:\FLAC\Plain White T's\Plain White T's - 2008 - Big Bad World\07 - Plain White T's - Sunlight.wav
Peak level 100.0 %
Track quality 100.0 %
Test CRC C763072D
Copy CRC C763072D
Track not present in AccurateRip database
Copy OK
Track 8
Filename H:\FLAC\Plain White T's\Plain White T's - 2008 - Big Bad World\08 - Plain White T's - I Really Want You.wav
Peak level 100.0 %
Track quality 100.0 %
Test CRC 232A2CED
Copy CRC 232A2CED
Track not present in AccurateRip database
Copy OK
Track 9
Filename H:\FLAC\Plain White T's\Plain White T's - 2008 - Big Bad World\09 - Plain White T's - Meet Me In California.wav
Peak level 100.0 %
Track quality 100.0 %
Test CRC 7FE97528
Copy CRC 7FE97528
Track not present in AccurateRip database
Copy OK
Track 10
Filename H:\FLAC\Plain White T's\Plain White T's - 2008 - Big Bad World\10 - Plain White T's - Someday.wav
Peak level 100.0 %
Track quality 100.0 %
Test CRC FA91616E
Copy CRC FA91616E
Track not present in AccurateRip database
Copy OK
None of the tracks are present in the AccurateRip database
No errors occurred
End of status report
Правила, инструкции, FAQ!!!
Торрент  Добавлен [26 мар 2019, 19:39] Скачать торрент Магнет ссылка
Скачать торрент
[ Размер 20.16 КБ / Просмотров 1 ]

Статус
Проверен 
 
Размер  240.88 МБ
Приватный: Нет (DHT включён)
.torrent скачан  0
 


     Отправить личное сообщение
   
Страница 1 из 1
Показать сообщения за:  Поле сортировки  
Начать новую тему Ответить на тему


Сейчас этот форум просматривают: нет зарегистрированных пользователей и гости: 0


Вы не можете начинать темы
Вы не можете отвечать на сообщения
Вы не можете редактировать свои сообщения
Вы не можете удалять свои сообщения
Вы не можете добавлять вложения

Перейти:  
cron