Начать новую тему Ответить на тему
Статистика раздачи
Размер: 297.86 МБ | Добавлен: 26 мар 2019, 20:45 | Скачали: 0
Сидеров: 1  [0 байт/сек]    Личеров: 0  [0 байт/сек]
Пред. тема | След. тема 

Автор
Сообщение

СообщениеДобавлено: 26 мар 2019, 20:45 

Ответить с цитатой 

Plain White T's - All That We Needed
Жанр: rock
Год выпуска диска: 2005
Производитель диска: USA
Аудио кодек: FLAC
Тип рипа: tracks+.cue
Битрейт аудио: lossless
Трэклист:1. "All That We Needed" - 3:41
2. "Revenge" - 3:26
3. "Take Me Away" - 2:42
4. "My Only One" - 3:49
5. "Sad Story" - 2:57
6. "Breakdown" - 3:34
7. "What More Do You Want?" - 2:24
8. "Lazy Day Afternoon" - 2:15
9. "Anything" - 2:59
10. "Sing My Best" - 2:51
11. "Faster" - 2:51
12. "Last Call" - 2:53
13. "Hey There Delilah" - 3:52
EAC extraction logfile from 15. April 2007, 15:43 for CD
Plain White T's / All That We Needed
Used drive : MATSHITADVD-RAM UJ-831S Adapter: 1 ID: 0
Read mode : Secure with NO C2, accurate stream, disable cache
Read offset correction : 102
Overread into Lead-In and Lead-Out : No
Used output format : C:\Programme\FLAC\flac.exe (User Defined Encoder)
192 kBit/s
Additional command line options : -8 -A tukey(0.25) -A gauss(0.1875) -b 4096 -V -T "artist=%a" -T "title=%t" -T "album=%g" -T "date=%y" -T "tracknumber=%n" -T "genre=%m" %s --sector-align
Other options :
Fill up missing offset samples with silence : Yes
Delete leading and trailing silent blocks : No
Installed external ASPI interface
Track 1
Filename D:\Oink\Seeding\Plain White T's - All That We Needed (FLAC)\01 - All That We Needed.wav
Pre-gap length 0:00:02.00
Peak level 96.6 %
Track quality 99.9 %
Test CRC D475327B
Copy CRC D475327B
Copy OK
Track 2
Filename D:\Oink\Seeding\Plain White T's - All That We Needed (FLAC)\02 - Revenge.wav
Peak level 96.6 %
Track quality 100.0 %
Test CRC 09725FA5
Copy CRC 09725FA5
Copy OK
Track 3
Filename D:\Oink\Seeding\Plain White T's - All That We Needed (FLAC)\03 - Take Me Away.wav
Peak level 96.6 %
Track quality 100.0 %
Test CRC 5B7ECF52
Copy CRC 5B7ECF52
Copy OK
Track 4
Filename D:\Oink\Seeding\Plain White T's - All That We Needed (FLAC)\04 - My Only One.wav
Peak level 96.6 %
Track quality 100.0 %
Test CRC 999C0E95
Copy CRC 999C0E95
Copy OK
Track 5
Filename D:\Oink\Seeding\Plain White T's - All That We Needed (FLAC)\05 - Sad Story.wav
Pre-gap length 0:00:01.17
Peak level 96.6 %
Track quality 100.0 %
Test CRC 5D15759B
Copy CRC 5D15759B
Copy OK
Track 6
Filename D:\Oink\Seeding\Plain White T's - All That We Needed (FLAC)\06 - Breakdown.wav
Peak level 96.6 %
Track quality 100.0 %
Test CRC DC7937EC
Copy CRC DC7937EC
Copy OK
Track 7
Filename D:\Oink\Seeding\Plain White T's - All That We Needed (FLAC)\07 - What More Do You Want .wav
Pre-gap length 0:00:01.20
Peak level 96.6 %
Track quality 100.0 %
Test CRC 361898AB
Copy CRC 361898AB
Copy OK
Track 8
Filename D:\Oink\Seeding\Plain White T's - All That We Needed (FLAC)\08 - Lazy Day Afternoon.wav
Peak level 96.6 %
Track quality 99.9 %
Test CRC 4788DCAE
Copy CRC 4788DCAE
Copy OK
Track 9
Filename D:\Oink\Seeding\Plain White T's - All That We Needed (FLAC)\09 - Anything.wav
Peak level 96.6 %
Track quality 100.0 %
Test CRC 7DE8BFB6
Copy CRC 7DE8BFB6
Copy OK
Track 10
Filename D:\Oink\Seeding\Plain White T's - All That We Needed (FLAC)\10 - Sing My Best.wav
Pre-gap length 0:00:01.18
Peak level 96.6 %
Track quality 100.0 %
Test CRC 5A3562DA
Copy CRC 5A3562DA
Copy OK
Track 11
Filename D:\Oink\Seeding\Plain White T's - All That We Needed (FLAC)\11 - Faster.wav
Pre-gap length 0:00:01.05
Peak level 96.6 %
Track quality 99.9 %
Test CRC 9D85F0A3
Copy CRC 9D85F0A3
Copy OK
Track 12
Filename D:\Oink\Seeding\Plain White T's - All That We Needed (FLAC)\12 - Last Call.wav
Pre-gap length 0:00:01.97
Peak level 96.6 %
Track quality 100.0 %
Test CRC 93400772
Copy CRC 93400772
Copy OK
Track 13
Filename D:\Oink\Seeding\Plain White T's - All That We Needed (FLAC)\13 - Hey There Delilah.wav
Pre-gap length 0:00:04.01
Peak level 96.4 %
Track quality 100.0 %
Test CRC 0AC38081
Copy CRC 0AC38081
Copy OK
No errors occured
End of status report
Правила, инструкции, FAQ!!!
Торрент  Добавлен [26 мар 2019, 20:45] Скачать торрент Магнет ссылка
Скачать торрент
[ Размер 12.89 КБ / Просмотров 3 ]

Статус
Проверен 
 
Размер  297.86 МБ
Приватный: Нет (DHT включён)
.torrent скачан  0
 


     Отправить личное сообщение
   
Страница 1 из 1
Показать сообщения за:  Поле сортировки  
Начать новую тему Ответить на тему


Сейчас этот форум просматривают: нет зарегистрированных пользователей и гости: 0


Вы не можете начинать темы
Вы не можете отвечать на сообщения
Вы не можете редактировать свои сообщения
Вы не можете удалять свои сообщения
Вы не можете добавлять вложения

Перейти:  
cron