Начать новую тему Ответить на тему
Статистика раздачи
Размер: 1007.55 МБ | Добавлен: 21 авг 2020, 20:23 | Скачали: 0
Сидеров: 1  [0 байт/сек]    Личеров: 0  [0 байт/сек]
Пред. тема | След. тема 

Автор
Сообщение

СообщениеДобавлено: 21 авг 2020, 20:23 

Ответить с цитатой 

Phil Collins - Both Sides (Two Different Variants)


Продолжительность: 67:16
Трэклист:
01. Both Sides Of The Story 6:43
02. Can't Turn Back The Years 4:41
03. Everyday 5:44
04. I've Forgotten Everything 5:15
05. We're Sons Of Our Fathers 6:24
06. Can't Find My Way 5:09
07. Survivors 6:05
08. We Fly So Close 7:34
09. There's A Place For Us 6:53
10. We Wait And We Wonder 7:01
11. Please Come Out Tonight 5:47

Код:
Exact Audio Copy V1.3 from 2. September 2016
EAC extraction logfile from 2. February 2019, 11:58
Phil Collins / Both Sides (82550-2)
Used drive  : ASUS    DRW-24D5MT   Adapter: 1  ID: 0
Read mode               : Secure
Utilize accurate stream : Yes
Defeat audio cache      : Yes
Make use of C2 pointers : No
Read offset correction                      : 6
Overread into Lead-In and Lead-Out          : No
Fill up missing offset samples with silence : Yes
Delete leading and trailing silent blocks   : No
Null samples used in CRC calculations       : Yes
Used interface                              : Native Win32 interface for Win NT & 2000
Used output format              : User Defined Encoder
Selected bitrate                : 768 kBit/s
Quality                         : High
Add ID3 tag                     : No
Command line compressor         : C:\Program Files (x86)\Exact Audio Copy\Flac\flac.exe
Additional command line options : -V -8 -T "Genre=%genre%" -T "Artist=%artist%" -T "Title=%title%" -T "Album=%albumtitle%" -T "Date=%year%" -T "Tracknumber=%tracknr%" -T "Comment=%comment%" %source%
TOC of the extracted CD
     Track |   Start  |  Length  | Start sector | End sector
    ---------------------------------------------------------
        1  |  0:00.00 |  6:42.67 |         0    |    30216
        2  |  6:42.67 |  4:40.45 |     30217    |    51261
        3  | 11:23.37 |  5:43.63 |     51262    |    77049
        4  | 17:07.25 |  5:15.15 |     77050    |   100689
        5  | 22:22.40 |  6:24.37 |    100690    |   129526
        6  | 28:47.02 |  5:09.05 |    129527    |   152706
        7  | 33:56.07 |  6:05.18 |    152707    |   180099
        8  | 40:01.25 |  7:33.42 |    180100    |   214116
        9  | 47:34.67 |  6:52.70 |    214117    |   245086
       10  | 54:27.62 |  7:01.08 |    245087    |   276669
       11  | 61:28.70 |  5:46.70 |    276670    |   302689
Range status and errors
Selected range
     Filename I:\dafnaplus\Phil Collins - Both Sides\Phil Collins - Both Sides (82550-2).wav
     Peak level 97.7 %
     Extraction speed 3.2 X
     Range quality 100.0 %
     Test CRC EBBB0AB4
     Copy CRC EBBB0AB4
     Copy OK
No errors occurred
AccurateRip summary
Track  1  accurately ripped (confidence 4)  [3DE5B7C3]  (AR v2)
Track  2  accurately ripped (confidence 4)  [47A38E5B]  (AR v2)
Track  3  accurately ripped (confidence 4)  [F270146E]  (AR v2)
Track  4  accurately ripped (confidence 4)  [CA152B02]  (AR v2)
Track  5  accurately ripped (confidence 4)  [66E4AA43]  (AR v2)
Track  6  accurately ripped (confidence 4)  [11B7E5C7]  (AR v2)
Track  7  accurately ripped (confidence 4)  [EEAAC772]  (AR v2)
Track  8  accurately ripped (confidence 4)  [2194B7CA]  (AR v2)
Track  9  accurately ripped (confidence 4)  [D81B8CB0]  (AR v2)
Track 10  accurately ripped (confidence 3)  [E38E666D]  (AR v2)
Track 11  accurately ripped (confidence 4)  [E83AFA2D]  (AR v2)
All tracks accurately ripped
End of status report
---- CUETools DB Plugin V2.1.6
[CTDB TOCID: JHfS12o1Zs1w3VW2tt7uFwath_E-] found
Submit result: JHfS12o1Zs1w3VW2tt7uFwath_E- has been confirmed
Track | CTDB Status
  1   | (15/15) Accurately ripped
  2   | (15/15) Accurately ripped
  3   | (15/15) Accurately ripped
  4   | (15/15) Accurately ripped
  5   | (15/15) Accurately ripped
  6   | (15/15) Accurately ripped
  7   | (15/15) Accurately ripped
  8   | (15/15) Accurately ripped
  9   | (15/15) Accurately ripped
 10   | (15/15) Accurately ripped
 11   | (15/15) Accurately ripped
==== Log checksum 137E0399557F954F4E08F3055E261A661E1814D3779C0C762D1396273BC3CA9A ====
Код:
REM GENRE "Soft Rock"
REM DATE 1993
REM DISCID 990FC30B
REM COMMENT "ExactAudioCopy v1.3"
PERFORMER "Phil Collins"
TITLE "Both Sides (82550-2)"
REM COMPOSER ""
FILE "Phil Collins - Both Sides (82550-2).flac" WAVE
  TRACK 01 AUDIO
    TITLE "Both Sides Of The Story"
    PERFORMER "Phil Collins"
    REM COMPOSER ""
    INDEX 01 00:00:00
  TRACK 02 AUDIO
    TITLE "Can't Turn Back The Years"
    PERFORMER "Phil Collins"
    REM COMPOSER ""
    INDEX 00 06:39:27
    INDEX 01 06:42:67
  TRACK 03 AUDIO
    TITLE "Everyday"
    PERFORMER "Phil Collins"
    REM COMPOSER ""
    INDEX 00 11:21:10
    INDEX 01 11:23:37
  TRACK 04 AUDIO
    TITLE "I've Forgotten Everything"
    PERFORMER "Phil Collins"
    REM COMPOSER ""
    INDEX 00 17:06:25
    INDEX 01 17:07:25
  TRACK 05 AUDIO
    TITLE "We're Sons Of Our Fathers"
    PERFORMER "Phil Collins"
    REM COMPOSER ""
    INDEX 01 22:22:40
  TRACK 06 AUDIO
    TITLE "Can't Find My Way"
    PERFORMER "Phil Collins"
    REM COMPOSER ""
    INDEX 00 28:44:62
    INDEX 01 28:47:02
  TRACK 07 AUDIO
    TITLE "Survivors"
    PERFORMER "Phil Collins"
    REM COMPOSER ""
    INDEX 00 33:51:50
    INDEX 01 33:56:07
  TRACK 08 AUDIO
    TITLE "We Fly So Close"
    PERFORMER "Phil Collins"
    REM COMPOSER ""
    INDEX 01 40:01:25
  TRACK 09 AUDIO
    TITLE "There's A Place For Us"
    PERFORMER "Phil Collins"
    REM COMPOSER ""
    INDEX 01 47:34:67
  TRACK 10 AUDIO
    TITLE "We Wait And We Wonder"
    PERFORMER "Phil Collins"
    REM COMPOSER ""
    INDEX 00 54:25:62
    INDEX 01 54:27:62
  TRACK 11 AUDIO
    TITLE "Please Come Out Tonight"
    PERFORMER "Phil Collins"
    REM COMPOSER ""
    INDEX 00 61:26:12
    INDEX 01 61:28:70
Код:
foobar2000 1.3.16 / Dynamic Range Meter 1.1.1
log date: 2019-02-11 12:11:35
--------------------------------------------------------------------------------
Analyzed: Phil Collins / Both Sides (82550-2)
--------------------------------------------------------------------------------
DR         Peak         RMS     Duration Track
--------------------------------------------------------------------------------
DR9       -0.20 dB   -10.70 dB      6:43 01-Both Sides Of The Story
DR12      -0.20 dB   -14.12 dB      4:41 02-Can't Turn Back The Years
DR9       -0.28 dB   -11.63 dB      5:44 03-Everyday
DR12      -0.28 dB   -13.49 dB      5:15 04-I've Forgotten Everything
DR11      -0.29 dB   -12.81 dB      6:24 05-We're Sons Of Our Fathers
DR13      -0.28 dB   -15.33 dB      5:09 06-Can't Find My Way
DR9       -0.20 dB   -10.88 dB      6:05 07-Survivors
DR11      -0.28 dB   -13.89 dB      7:34 08-We Fly So Close
DR11      -0.20 dB   -13.19 dB      6:53 09-There's A Place For Us
DR9       -0.20 dB   -10.95 dB      7:01 10-We Wait And We Wonder
DR11      -0.29 dB   -12.97 dB      5:47 11-Please Come Out Tonight
--------------------------------------------------------------------------------
Number of tracks:  11
Official DR value: DR11
Samplerate:        44100 Hz
Channels:          2
Bits per sample:   16
Bitrate:           836 kbps
Codec:             FLAC
================================================================================
Продолжительность: 67:16
Трэклист:
01. Both Sides Of The Story 6:43
02. Can't Turn Back The Years 4:41
03. Everyday 5:44
04. I've Forgotten Everything 5:15
05. We're Sons Of Our Fathers 6:25
06. Can't Find My Way 5:09
07. Survivors 6:05
08. We Fly So Close 7:34
09. There's A Place For Us 6:53
10. We Wait And We Wonder 7:01
11. Please Come Out Tonight 5:47
Код:
Exact Audio Copy V1.3 from 2. September 2016
EAC extraction logfile from 13. February 2020, 20:13
Phil Collins / Both Sides (82550-2)
Used drive  : ASUS    DRW-24D5MT   Adapter: 1  ID: 0
Read mode               : Secure
Utilize accurate stream : Yes
Defeat audio cache      : Yes
Make use of C2 pointers : No
Read offset correction                      : 6
Overread into Lead-In and Lead-Out          : No
Fill up missing offset samples with silence : Yes
Delete leading and trailing silent blocks   : No
Null samples used in CRC calculations       : Yes
Used interface                              : Native Win32 interface for Win NT & 2000
Used output format              : User Defined Encoder
Selected bitrate                : 768 kBit/s
Quality                         : High
Add ID3 tag                     : No
Command line compressor         : C:\Program Files (x86)\Exact Audio Copy\Flac\flac.exe
Additional command line options : -V -8 -T "Genre=%genre%" -T "Artist=%artist%" -T "Title=%title%" -T "Album=%albumtitle%" -T "Date=%year%" -T "Tracknumber=%tracknr%" -T "Comment=%comment%" %source%
TOC of the extracted CD
     Track |   Start  |  Length  | Start sector | End sector
    ---------------------------------------------------------
        1  |  0:00.32 |  6:42.68 |        32    |    30249
        2  |  6:43.25 |  4:40.45 |     30250    |    51294
        3  | 11:23.70 |  5:43.62 |     51295    |    77081
        4  | 17:07.57 |  5:15.05 |     77082    |   100711
        5  | 22:22.62 |  6:24.48 |    100712    |   129559
        6  | 28:47.35 |  5:09.05 |    129560    |   152739
        7  | 33:56.40 |  6:05.12 |    152740    |   180126
        8  | 40:01.52 |  7:33.48 |    180127    |   214149
        9  | 47:35.25 |  6:52.70 |    214150    |   245119
       10  | 54:28.20 |  7:01.07 |    245120    |   276701
       11  | 61:29.27 |  5:46.45 |    276702    |   302696
Range status and errors
Selected range
     Filename I:\dafnaplus\Phil Collins\Phil Collins - Both Sides (82550-2).wav
     Peak level 97.7 %
     Extraction speed 2.0 X
     Range quality 100.0 %
     Test CRC AE823106
     Copy CRC AE823106
     Copy OK
No errors occurred
AccurateRip summary
Track  1  accurately ripped (confidence 71)  [41D74B49]  (AR v2)
Track  2  accurately ripped (confidence 74)  [B1DFAB03]  (AR v2)
Track  3  accurately ripped (confidence 76)  [5B93B8F0]  (AR v2)
Track  4  accurately ripped (confidence 74)  [F3973F82]  (AR v2)
Track  5  accurately ripped (confidence 72)  [DE505D12]  (AR v2)
Track  6  accurately ripped (confidence 74)  [F90E8A78]  (AR v2)
Track  7  accurately ripped (confidence 74)  [05B6B287]  (AR v2)
Track  8  accurately ripped (confidence 73)  [07CF0350]  (AR v2)
Track  9  accurately ripped (confidence 73)  [E13E39C8]  (AR v2)
Track 10  accurately ripped (confidence 73)  [E06251E2]  (AR v2)
Track 11  accurately ripped (confidence 71)  [76E9F11B]  (AR v2)
All tracks accurately ripped
End of status report
---- CUETools DB Plugin V2.1.6
[CTDB TOCID: jA93zujv.mIbWFmyP8c2cI4vmM8-] found
Submit result: jA93zujv.mIbWFmyP8c2cI4vmM8- has been confirmed
Track | CTDB Status
  1   | (468/482) Accurately ripped
  2   | (478/482) Accurately ripped
  3   | (478/482) Accurately ripped
  4   | (479/482) Accurately ripped
  5   | (479/482) Accurately ripped
  6   | (477/482) Accurately ripped
  7   | (476/482) Accurately ripped
  8   | (477/482) Accurately ripped
  9   | (475/482) Accurately ripped
 10   | (474/482) Accurately ripped
 11   | (463/482) Accurately ripped
==== Log checksum D562D951FD021DDD38A3A690F94D36192D8852DC78B8649D41289C7D2DB17891 ====
Код:
REM GENRE Rock/Pop
REM DATE 1993
REM DISCID 940FC30B
REM COMMENT "ExactAudioCopy v1.3"
PERFORMER "Phil Collins"
TITLE "Both Sides (82550-2)"
REM COMPOSER ""
FILE "Phil Collins - Both Sides (82550-2).flac" WAVE
  TRACK 01 AUDIO
    TITLE "Both Sides Of The Story"
    PERFORMER "Phil Collins"
    REM COMPOSER ""
    INDEX 00 00:00:00
    INDEX 01 00:00:32
  TRACK 02 AUDIO
    TITLE "Can't Turn Back The Years"
    PERFORMER "Phil Collins"
    REM COMPOSER ""
    INDEX 00 06:39:35
    INDEX 01 06:43:25
  TRACK 03 AUDIO
    TITLE "Everyday"
    PERFORMER "Phil Collins"
    REM COMPOSER ""
    INDEX 00 11:21:18
    INDEX 01 11:23:70
  TRACK 04 AUDIO
    TITLE "I've Forgotten Everything"
    PERFORMER "Phil Collins"
    REM COMPOSER ""
    INDEX 00 17:06:33
    INDEX 01 17:07:57
  TRACK 05 AUDIO
    TITLE "We're Sons Of Our Fathers"
    PERFORMER "Phil Collins"
    REM COMPOSER ""
    INDEX 01 22:22:62
  TRACK 06 AUDIO
    TITLE "Can't Find My Way"
    PERFORMER "Phil Collins"
    REM COMPOSER ""
    INDEX 00 28:44:70
    INDEX 01 28:47:35
  TRACK 07 AUDIO
    TITLE "Survivors"
    PERFORMER "Phil Collins"
    REM COMPOSER ""
    INDEX 00 33:51:58
    INDEX 01 33:56:40
  TRACK 08 AUDIO
    TITLE " We Fly So Close"
    PERFORMER "Phil Collins"
    REM COMPOSER ""
    INDEX 01 40:01:52
  TRACK 09 AUDIO
    TITLE "There's A Place For Us"
    PERFORMER "Phil Collins"
    REM COMPOSER ""
    INDEX 01 47:35:25
  TRACK 10 AUDIO
    TITLE "We Wait And We Wonder"
    PERFORMER "Phil Collins"
    REM COMPOSER ""
    INDEX 00 54:25:70
    INDEX 01 54:28:20
  TRACK 11 AUDIO
    TITLE "Please Come Out Tonight"
    PERFORMER "Phil Collins"
    REM COMPOSER ""
    INDEX 00 61:26:20
    INDEX 01 61:29:27
Код:
foobar2000 1.3.16 / Dynamic Range Meter 1.1.1
log date: 2020-05-05 10:48:20
--------------------------------------------------------------------------------
Analyzed: Phil Collins / Both Sides (82550-2)
--------------------------------------------------------------------------------
DR         Peak         RMS     Duration Track
--------------------------------------------------------------------------------
DR9       -0.20 dB   -10.71 dB      6:43 01-Both Sides Of The Story
DR12      -0.20 dB   -14.12 dB      4:41 02-Can't Turn Back The Years
DR9       -0.28 dB   -11.63 dB      5:44 03-Everyday
DR12      -0.28 dB   -13.49 dB      5:15 04-I've Forgotten Everything
DR11      -0.29 dB   -12.84 dB      6:25 05-We're Sons Of Our Fathers
DR13      -0.28 dB   -15.33 dB      5:09 06-Can't Find My Way
DR9       -0.20 dB   -10.88 dB      6:05 07-Survivors
DR11      -0.28 dB   -13.92 dB      7:34 08- We Fly So Close
DR11      -0.20 dB   -13.19 dB      6:53 09-There's A Place For Us
DR9       -0.20 dB   -10.95 dB      7:01 10-We Wait And We Wonder
DR11      -0.29 dB   -12.97 dB      5:47 11-Please Come Out Tonight
--------------------------------------------------------------------------------
Number of tracks:  11
Official DR value: DR11
Samplerate:        44100 Hz
Channels:          2
Bits per sample:   16
Bitrate:           836 kbps
Codec:             FLAC
================================================================================

Правила, инструкции, FAQ!!!
Торрент  Добавлен [21 авг 2020, 20:23] Скачать торрент Магнет ссылка
Скачать торрент
[ Размер 22.9 КБ / Просмотров 4 ]

Статус
Проверен 
 
Размер  1007.55 МБ
Приватный: Нет (DHT включён)
.torrent скачан  0
 


     Отправить личное сообщение
   
Страница 1 из 1
Показать сообщения за:  Поле сортировки  
Начать новую тему Ответить на тему


Сейчас этот форум просматривают: нет зарегистрированных пользователей и гости: 0


Вы не можете начинать темы
Вы не можете отвечать на сообщения
Вы не можете редактировать свои сообщения
Вы не можете удалять свои сообщения
Вы не можете добавлять вложения

Перейти:  
cron