Начать новую тему Ответить на тему
Статистика раздачи
Размер: 107.71 МБ | Добавлен: 26 мар 2019, 20:50 | Скачали: 0
Сидеров: 0  [0 байт/сек]    Личеров: 0  [0 байт/сек]
Пред. тема | След. тема 

Автор
Сообщение

СообщениеДобавлено: 26 мар 2019, 20:50 

Ответить с цитатой 

Phil Carmen / Hypertension (Single)
Жанр: Pop/Rock
Страна-производитель диска: West Germany
Год издания диска: 1993
Издатель (лейбл): Edel
Номер по каталогу: EDL 2733-5
Страна: Switzerland
Аудиокодек: FLAC (*.flac)
Тип рипа: image+.cue
Битрейт аудио: lossless
Продолжительность: 12:06
Источник (релизер): Mawrix
Наличие сканов в содержимом раздачи: да
Треклист:
1. Hypertension
2. We're On The Front Line
3. Sailing Out To You
Код:
Exact Audio Copy V0.99 prebeta 5 from 4. May 2009
Отчёт EAC об извлечении, выполненном 22. июня 2011, 20:05
Phil Carmen / Hypertension
Дисковод: PIONEER DVD-RW  DVR-215D   Adapter: 1  ID: 1
Режим чтения                 : Достоверность
Использование точного потока : Да
Отключение кэша аудио        : Да
Использование указателей C2  : Нет
Коррекция смещения при чтении                     : 48
Способность читать области Lead-in и Lead-out     : Нет
Заполнение пропущенных сэмплов тишиной            : Да
Удаление блоков с тишиной в начале и конце        : Нет
При вычислениях CRC использовались нулевые сэмплы : Да
Интерфейс                                         : Встроенный Win32-интерфейс для Win NT/2000
Выходной формат          : Пользовательский кодировщик
Выбранный битрейт        : 1024 kBit/s
Качество                 : Высокий
Добавление ID3-тэга      : Нет
Утилита сжатия           : H:\Program Files\Exact Audio Copy\FLAC\FLAC.EXE
Дополнительные параметры : -6 -V -T "ARTIST=%a" -T "TITLE=%t" -T "ALBUM=%g" -T "DATE=%y" -T "TRACKNUMBER=%n" -T "GENRE=%m" -T "COMMENT=%e" %s -o %d
TOC извлечённого CD
     Трек |   Старт  | Длительность | Начальный сектор | Конечный сектор
    ---------------------------------------------------------------------
       1  |  0:00.00 |    3:42.35   |           0      |      16684
       2  |  3:42.35 |    3:42.30   |       16685      |      33364
       3  |  7:24.65 |    4:41.40   |       33365      |      54479
Характеристики диапазона извлечения и сообщения об ошибках
Выбранный диапазон
     Имя файла L:\Audio Lossless\Phil Carmen. 1993 Hypertension (Single)\Phil Carmen - Hypertension.wav
     Пиковый уровень 98.8 %
     Качество диапазона 100.0 %
     CRC теста 7B8E0735
     CRC копии 7B8E0735
     Копирование... OK
Ошибок не произошло
AccurateRip: сводка
Трек  1  нет в базе данных
Трек  2  нет в базе данных
Трек  3  нет в базе данных
Ни одного трека нет в базе AccurateRip
Конец отчёта
Код:
REM GENRE Rock
REM DATE 1993
REM DISCID 1802D603
REM COMMENT "ExactAudioCopy v0.99pb5"
PERFORMER "Phil Carmen"
TITLE "Hypertension"
FILE "Phil Carmen - Hypertension.flac" WAVE
  TRACK 01 AUDIO
    TITLE "Hypertension"
    PERFORMER "Phil Carmen"
    INDEX 01 00:00:00
  TRACK 02 AUDIO
    TITLE "We're On The Front Line"
    PERFORMER "Phil Carmen"
    INDEX 00 03:40:67
    INDEX 01 03:42:35
  TRACK 03 AUDIO
    TITLE "Sailing Out to You"
    PERFORMER "Phil Carmen"
    INDEX 00 07:23:20
    INDEX 01 07:24:65
Правила, инструкции, FAQ!!!
Торрент  Добавлен [26 мар 2019, 20:50] Скачать торрент Магнет ссылка
Скачать торрент
[ Размер 17.66 КБ / Просмотров 1 ]

Статус
Проверен 
 
Размер  107.71 МБ
Приватный: Нет (DHT включён)
.torrent скачан  0
 


     Отправить личное сообщение
   
Страница 1 из 1
Показать сообщения за:  Поле сортировки  
Начать новую тему Ответить на тему


Сейчас этот форум просматривают: нет зарегистрированных пользователей и гости: 0


Вы не можете начинать темы
Вы не можете отвечать на сообщения
Вы не можете редактировать свои сообщения
Вы не можете удалять свои сообщения
Вы не можете добавлять вложения

Перейти:  
cron