Начать новую тему Ответить на тему
Статистика раздачи
Размер: 321.37 МБ | Добавлен: 26 мар 2019, 19:46 | Скачали: 0
Сидеров: 0  [0 байт/сек]    Личеров: 0  [0 байт/сек]
Пред. тема | След. тема 

Автор
Сообщение

СообщениеДобавлено: 26 мар 2019, 19:46 

Ответить с цитатой 

Per Gessle - Mazarin
Страна: Швеция
Жанр: Pop/Rock
Год выпуска: 2003
Формат: APE (image + .cue)
Битрейт аудио: lossless
Продолжительность: 48:14
Трэклист:
1.Vilket Håll Du Än Går
2.Om Du Bara Vill
3.På Promenad Genom Stan
4.Smakar På Ett Regn
5.Gungar
6.Födelsedag
7.Sakta Mina Steg
8.Tycker Om Når Du Tar På Mej
9.Spegelboll
10.För Bra För Att Vara Sant
11.Här Kommer Alla Känslorna (På En Och Samma Gång)
12.Jag Tror Du Bär På En Stor Hemlighet
13.Varmt Igen
14.Mazarin
Exact Audio Copy V0.99 prebeta 4 from 23. January 2008
Отчёт EAC об извлечении, выполненном 27. февраля 2008, 21:57
Per Gessle / Mazarin
Дисковод: _NEC DVD_RW ND-3540A Adapter: 0 ID: 3
Режим чтения : Достоверность
Использование точного потока : Да
Отключение кэша аудио : Да
Использование указателей C2 : Нет
Коррекция смещения при чтении : 48
Способность читать области Lead-in и Lead-out : Нет
Заполнение пропущенных сэмплов тишиной : Да
Удаление блоков с тишиной в начале и конце : Нет
При вычислениях CRC использовались нулевые сэмплы : Да
Интерфейс : Установленный внешний ASPI-интерфейс
Выходной формат : Внутренние WAV-операции
Формат сэмплов : 44.100 Гц; 16 бит; стерео
TOC извлечённого CD
Трек | Старт | Длительность | Начальный сектор | Конечный сектор
---------------------------------------------------------------------
1 | 0:00.00 | 3:18.03 | 0 | 14852
2 | 3:18.03 | 3:47.22 | 14853 | 31899
3 | 7:05.25 | 3:21.07 | 31900 | 46981
4 | 10:26.32 | 3:26.49 | 46982 | 62480
5 | 13:53.06 | 3:36.71 | 62481 | 78751
6 | 17:30.02 | 3:13.16 | 78752 | 93242
7 | 20:43.18 | 2:35.35 | 93243 | 104902
8 | 23:18.53 | 3:26.46 | 104903 | 120398
9 | 26:45.24 | 3:31.33 | 120399 | 136256
10 | 30:16.57 | 3:28.74 | 136257 | 151930
11 | 33:45.56 | 2:43.08 | 151931 | 164163
12 | 36:28.64 | 3:58.38 | 164164 | 182051
13 | 40:27.27 | 4:21.43 | 182052 | 201669
14 | 44:48.70 | 3:24.61 | 201670 | 217030
Характеристики диапазона извлечения и сообщения об ошибках
Выбранный диапазон
Имя файла D:\Мои документы\Per Gessle - Mazarin.wav
Пиковый уровень 100.0 %
Качество диапазона 100.0 %
CRC копии AACFE064
Копирование... OK
Ошибок не произошло
Конец отчёта
Доп. информация: 4-й полноценный сольный альбом Пера Гессле на шведском языке, за которым последовало турне «Mazarin sommarturné 2003». Разошелся в Швеции тиражом в 320 000 копий, что соответствует пяти платиновым дискам. Перу он принес несколько музыкальных наград таких как «Лучший альбом 2003 года» и «Лучший исполнитель 2003 года».
Пер Гессле: «Это была совершенно фантастическая работа в студии. Просто невероятная работа… Я также выражаю благодарность за альбом Линдсею Бакингему (Fleetwood Mac) и Джорджу Харрисону. Это то звучание, которого мы старались добиться, идеальный звук из 1971-72 годов. Он проходит через весь альбом, он звучит воздушно и весело а музыка в нем оживает».
Правила, инструкции, FAQ!!!
Торрент  Добавлен [26 мар 2019, 19:46] Скачать торрент Магнет ссылка
Скачать торрент
[ Размер 13.35 КБ / Просмотров 7 ]

Статус
Проверен 
 
Размер  321.37 МБ
Приватный: Нет (DHT включён)
.torrent скачан  0
 


     Отправить личное сообщение
   
Страница 1 из 1
Показать сообщения за:  Поле сортировки  
Начать новую тему Ответить на тему


Сейчас этот форум просматривают: нет зарегистрированных пользователей и гости: 0


Вы не можете начинать темы
Вы не можете отвечать на сообщения
Вы не можете редактировать свои сообщения
Вы не можете удалять свои сообщения
Вы не можете добавлять вложения

Перейти:  
cron