Начать новую тему Ответить на тему
Статистика раздачи
Размер: 397.35 МБ | Добавлен: 26 мар 2019, 19:12 | Скачали: 0
Сидеров: 0  [0 байт/сек]    Личеров: 0  [0 байт/сек]
Пред. тема | След. тема 

Автор
Сообщение

СообщениеДобавлено: 26 мар 2019, 19:12 

Ответить с цитатой 

Peppy Castro / Just Beginning
Жанр: Pop Rock
Страна-производитель диска (релиза): USA
Год издания: 2013
Издатель (лейбл): Kayos Records
Номер по каталогу: 820360165122
Аудиокодек: FLAC (*.flac)
Тип рипа: image+.cue
Битрейт аудио: lossless
Продолжительность: 57:19
Источник (релизер): Boris1
Наличие сканов в содержимом раздачи: да
Треклист:
01. Here For The Ride (4:10)
02. Who You Gonna Love (4:18)
03. Just Like An Animal (4:33)
04. Make Me Over (3:40)
05. Never Gonna Know (3:21)
06. Step (3:35)
07. I Wanted Us To Last (3:18 )
08. I'm Livin' My Life (3:34)
09. You Rescued Me (3:31)
10. Dancin On The Edge (4:22)
11. Willy Blue (2:48 )
12. Just Beginning (3:43)
13. Here For The Ride Credits (1:12)
14. Who You Gonna Love Credits (0:58)
15. Just Like An Animal Credits (0:43)
16. Make Me Over Credits (0:46)
17. Never Gonna Know Credits (1:07)
18. Step Credits (1:06)
19. I Wanted Us To Last Credits (1:02)
20. I'm Livin' My Life Credits (1:04)
21. Dancin' On The Edge Credits (0:38)
22. You Rescued Me Credits (0:52)
23. Willy Blue Credits (1:12)
24. Just Beginning Credits (1:46)
Код:
Exact Audio Copy V1.0 beta 3 from 29. August 2011
EAC extraction logfile from 11. May 2016, 21:18
Peppy Castro / Just Beginning
Used drive  : PIONEER BD-RW   BDR-TD03   Adapter: 0  ID: 1
Read mode               : Secure
Utilize accurate stream : Yes
Defeat audio cache      : Yes
Make use of C2 pointers : No
Read offset correction                      : 667
Overread into Lead-In and Lead-Out          : No
Fill up missing offset samples with silence : Yes
Delete leading and trailing silent blocks   : No
Null samples used in CRC calculations       : Yes
Used interface                              : Native Win32 interface for Win NT & 2000
Used output format              : User Defined Encoder
Selected bitrate                : 768 kBit/s
Quality                         : High
Add ID3 tag                     : No
Command line compressor         : C:\Program Files (x86)\Exact Audio Copy\FLAC\FLAC.EXE
Additional command line options : -6 -V -T "ARTIST=%artist%" -T "TITLE=%title%" -T "ALBUM=%albumtitle%" -T "DATE=%year%" -T "TRACKNUMBER=%tracknr%" -T "GENRE=%genre%" -T "COMMENT=%comment%" -T "BAND=%albuminterpret%" -T "ALBUMARTIST=%albuminterpret%" -T "COMPOSER=%composer%" %haslyrics%--tag-from-file=LYRICS="%lyricsfile%"%haslyrics% -T "DISCNUMBER=%cdnumber%" -T "TOTALDISCS=%totalcds%" -T "TOTALTRACKS=%numtracks%" %hascover%--picture="%coverfile%"%hascover% %source% -o %dest%
TOC of the extracted CD
     Track |   Start  |  Length  | Start sector | End sector
    ---------------------------------------------------------
        1  |  0:00.00 |  4:10.26 |         0    |    18775
        2  |  4:10.26 |  4:18.19 |     18776    |    38144
        3  |  8:28.45 |  4:33.33 |     38145    |    58652
        4  | 13:02.03 |  3:40.24 |     58653    |    75176
        5  | 16:42.27 |  3:21.02 |     75177    |    90253
        6  | 20:03.29 |  3:35.56 |     90254    |   106434
        7  | 23:39.10 |  3:18.27 |    106435    |   121311
        8  | 26:57.37 |  3:34.52 |    121312    |   137413
        9  | 30:32.14 |  3:31.37 |    137414    |   153275
       10  | 34:03.51 |  4:22.73 |    153276    |   172998
       11  | 38:26.49 |  2:48.31 |    172999    |   185629
       12  | 41:15.05 |  3:43.00 |    185630    |   202354
       13  | 44:58.05 |  1:12.73 |    202355    |   207827
       14  | 46:11.03 |  0:58.23 |    207828    |   212200
       15  | 47:09.26 |  0:43.63 |    212201    |   215488
       16  | 47:53.14 |  0:46.42 |    215489    |   218980
       17  | 48:39.56 |  1:07.29 |    218981    |   224034
       18  | 49:47.10 |  1:06.64 |    224035    |   229048
       19  | 50:53.74 |  1:02.15 |    229049    |   233713
       20  | 51:56.14 |  1:04.37 |    233714    |   238550
       21  | 53:00.51 |  0:38.20 |    238551    |   241420
       22  | 53:38.71 |  0:52.01 |    241421    |   245321
       23  | 54:30.72 |  1:12.59 |    245322    |   250780
       24  | 55:43.56 |  1:46.18 |    250781    |   258748
Range status and errors
Selected range
     Filename C:\Users\Deris\Desktop\kpnemo.eu\PeppyCa\Peppy Castro - Just Beginning.wav
     Peak level 100.0 %
     Extraction speed 4.9 X
     Range quality 100.0 %
     Test CRC 018B30B2
     Copy CRC 018B30B2
     Copy OK
No errors occurred
AccurateRip summary
Track  1  not present in database
Track  2  not present in database
Track  3  not present in database
Track  4  not present in database
Track  5  not present in database
Track  6  not present in database
Track  7  not present in database
Track  8  not present in database
Track  9  not present in database
Track 10  not present in database
Track 11  not present in database
Track 12  not present in database
Track 13  not present in database
Track 14  not present in database
Track 15  not present in database
Track 16  not present in database
Track 17  not present in database
Track 18  not present in database
Track 19  not present in database
Track 20  not present in database
Track 21  not present in database
Track 22  not present in database
Track 23  not present in database
Track 24  not present in database
None of the tracks are present in the AccurateRip database
End of status report
---- CUETools DB Plugin V2.1.3
[CTDB TOCID: of1jLzYj7zOMT5pY2G1T1HYP5ao-] disk not present in database, Submit result: of1jLzYj7zOMT5pY2G1T1HYP5ao- has been uploaded
==== Log checksum 0B88C69630F932099BE7560FAC19C4501E35A29A682D945DA9342ED1BC42C2D6 ====
Код:
REM GENRE Pop
REM DATE 2013
REM DISCID 3D0D7918
REM COMMENT "ExactAudioCopy v1.0b3"
PERFORMER "Peppy Castro"
TITLE "Just Beginning"
FILE "Peppy Castro - Just Beginning.flac" WAVE
  TRACK 01 AUDIO
    TITLE "Here For The Ride"
    PERFORMER "Peppy Castro"
    INDEX 01 00:00:00
  TRACK 02 AUDIO
    TITLE "Who You Gonna Love"
    PERFORMER "Peppy Castro"
    INDEX 01 04:10:26
  TRACK 03 AUDIO
    TITLE "Just Like An Animal"
    PERFORMER "Peppy Castro"
    INDEX 01 08:28:45
  TRACK 04 AUDIO
    TITLE "Make Me Over"
    PERFORMER "Peppy Castro"
    INDEX 01 13:02:03
  TRACK 05 AUDIO
    TITLE "Never Gonna Know"
    PERFORMER "Peppy Castro"
    INDEX 01 16:42:27
  TRACK 06 AUDIO
    TITLE "Step"
    PERFORMER "Peppy Castro"
    INDEX 01 20:03:29
  TRACK 07 AUDIO
    TITLE "I Wanted Us To Last"
    PERFORMER "Peppy Castro"
    INDEX 01 23:39:10
  TRACK 08 AUDIO
    TITLE "I'm Livin' My Life"
    PERFORMER "Peppy Castro"
    INDEX 01 26:57:37
  TRACK 09 AUDIO
    TITLE "You Rescued Me"
    PERFORMER "Peppy Castro"
    INDEX 01 30:32:14
  TRACK 10 AUDIO
    TITLE "Dancin On The Edge"
    PERFORMER "Peppy Castro"
    INDEX 01 34:03:51
  TRACK 11 AUDIO
    TITLE "Willy Blue"
    PERFORMER "Peppy Castro"
    INDEX 01 38:26:49
  TRACK 12 AUDIO
    TITLE "Just Beginning"
    PERFORMER "Peppy Castro"
    INDEX 01 41:15:05
  TRACK 13 AUDIO
    TITLE "Here For The Ride_Credits"
    PERFORMER "Peppy Castro"
    INDEX 00 44:55:20
    INDEX 01 44:58:05
  TRACK 14 AUDIO
    TITLE "Who You Gonna Love_Credits"
    PERFORMER "Peppy Castro"
    INDEX 01 46:11:03
  TRACK 15 AUDIO
    TITLE "Just Like An Animal_Credits"
    PERFORMER "Peppy Castro"
    INDEX 01 47:09:26
  TRACK 16 AUDIO
    TITLE "Make Me Over_Credits"
    PERFORMER "Peppy Castro"
    INDEX 01 47:53:14
  TRACK 17 AUDIO
    TITLE "Never Gonna Know_Credits"
    PERFORMER "Peppy Castro"
    INDEX 01 48:39:56
  TRACK 18 AUDIO
    TITLE "Step Credits"
    PERFORMER "Peppy Castro"
    INDEX 01 49:47:10
  TRACK 19 AUDIO
    TITLE "I Wanted Us To Last_Credits"
    PERFORMER "Peppy Castro"
    INDEX 01 50:53:74
  TRACK 20 AUDIO
    TITLE "I'm Livin' My Life_Credits"
    PERFORMER "Peppy Castro"
    INDEX 01 51:56:14
  TRACK 21 AUDIO
    TITLE "Dancin' On The Edge_Credits"
    PERFORMER "Peppy Castro"
    INDEX 01 53:00:51
  TRACK 22 AUDIO
    TITLE "You Rescued Me_Credits"
    PERFORMER "Peppy Castro"
    INDEX 01 53:38:71
  TRACK 23 AUDIO
    TITLE "Willy Blue_Credits"
    PERFORMER "Peppy Castro"
    INDEX 01 54:30:72
  TRACK 24 AUDIO
    TITLE "Just Beginning_Credits"
    PERFORMER "Peppy Castro"
    INDEX 01 55:43:56
Код:
foobar2000 1.1.10 / Dynamic Range Meter 1.1.1
log date: 2016-05-14 21:27:21
--------------------------------------------------------------------------------
Analyzed: Peppy Castro / Just Beginning
--------------------------------------------------------------------------------
DR         Peak         RMS     Duration Track
--------------------------------------------------------------------------------
DR9       -0.19 dB   -10.38 dB      4:10 ?-Here For The Ride
DR9        0.00 dB   -10.81 dB      4:18 ?-Who You Gonna Love
DR9       -0.19 dB   -11.43 dB      4:33 ?-Just Like An Animal
DR9       -0.19 dB   -11.02 dB      3:40 ?-Make Me Over
DR9       -0.18 dB   -10.48 dB      3:21 ?-Never Gonna Know
DR11      -0.18 dB   -12.46 dB      3:36 ?-Step
DR8       -0.18 dB    -9.70 dB      3:18 ?-I Wanted Us To Last
DR10      -0.19 dB   -11.13 dB      3:35 ?-I'm Livin' My Life
DR9       -0.19 dB   -12.15 dB      3:31 ?-You Rescued Me
DR9       -0.19 dB   -11.30 dB      4:23 ?-Dancin On The Edge
DR10      -0.18 dB   -11.60 dB      2:48 ?-Willy Blue
DR9       -0.18 dB   -10.78 dB      3:43 ?-Just Beginning
DR17      -0.88 dB   -20.81 dB      1:13 ?-Here For The Ride_Credits
DR13      -2.47 dB   -20.34 dB      0:58 ?-Who You Gonna Love_Credits
DR14      -5.42 dB   -21.93 dB      0:44 ?-Just Like An Animal_Credits
DR14      -2.35 dB   -21.87 dB      0:47 ?-Make Me Over_Credits
DR16      -0.20 dB   -18.84 dB      1:07 ?-Never Gonna Know_Credits
DR17      -1.01 dB   -20.81 dB      1:07 ?-Step Credits
DR14      -4.00 dB   -21.67 dB      1:02 ?-I Wanted Us To Last_Credits
DR14      -1.97 dB   -18.35 dB      1:04 ?-I'm Livin' My Life_Credits
DR13      -4.57 dB   -21.63 dB      0:38 ?-Dancin' On The Edge_Credits
DR13      -5.22 dB   -22.51 dB      0:52 ?-You Rescued Me_Credits
DR16      -3.31 dB   -21.89 dB      1:13 ?-Willy Blue_Credits
DR13      -4.28 dB   -21.13 dB      1:46 ?-Just Beginning_Credits
--------------------------------------------------------------------------------
Number of tracks:  24
Official DR value: DR12
Samplerate:        44100 Hz
Channels:          2
Bits per sample:   16
Bitrate:           858 kbps
Codec:             FLAC
================================================================================
Peppy Castro - американский гитарист, композитор и автор песен, отец-основатель рок-группы Blues Magoos, участник Barnaby Bye, вокалист AOR группы Balance. Его песни исполняли Kiss, Diana Ross и Cher и многие другие артисты. Peppy Castro номинант и обладатель премий Emmy. В разное время работал с разными музыкантами и исполнителями, вот только часть из них - Laura Branigаn, Michael Bolton, Liza Minnelli, Ronnie Spector, Peter Allen, Paul Stanley, Gene Simons, Ace Frehley, Joan Jett, Buzzy Lindhart, Rex Smith, Richie Havens, John Denver, Aldo Nova, David Johansen, Darlene Love.
Just Beginning - сольный альбом певца, вышедший в 2013. В записи приняли участие Joey Kramer и Brad Whitford из Aerosmith, Marty Kumersmith из Jay and The Americans, Billy & Bobby Alessi из Barnaby Bye. Castro говорит, что "музыка - подарок, который никогда не подводил его, она имеет власть над всеми человеческими чувствами" - этот сольный альбом - прекрасный пример этого.
http://www.peppycastro.com
Правила, инструкции, FAQ!!!
Торрент  Добавлен [26 мар 2019, 19:12] Скачать торрент Магнет ссылка
Скачать торрент
[ Размер 16.43 КБ / Просмотров 1 ]

Статус
Проверен 
 
Размер  397.35 МБ
Приватный: Нет (DHT включён)
.torrent скачан  0
 


     Отправить личное сообщение
   
Страница 1 из 1
Показать сообщения за:  Поле сортировки  
Начать новую тему Ответить на тему


Сейчас этот форум просматривают: нет зарегистрированных пользователей и гости: 0


Вы не можете начинать темы
Вы не можете отвечать на сообщения
Вы не можете редактировать свои сообщения
Вы не можете удалять свои сообщения
Вы не можете добавлять вложения

Перейти:  
cron