Начать новую тему Ответить на тему
Статистика раздачи
Размер: 273.79 МБ | Добавлен: 26 мар 2019, 19:09 | Скачали: 1
Сидеров: 0  [0 байт/сек]    Личеров: 0  [0 байт/сек]
Пред. тема | След. тема 

Автор
Сообщение

СообщениеДобавлено: 26 мар 2019, 19:09 

Ответить с цитатой 

Paul Janz - Renegade Romantic
Жанр: Pop, Rock
Год выпуска диска: 1990
Производитель диска: A&M Records (Нидерланды)
Аудио кодек: FLAC
Тип рипа: tracks+.cue
Битрейт аудио: lossless
Продолжительность: 42 мин 30 сек
Трэклист:
01. Every little Tear {4:09}
02. Hold me tender {4:44}
03. Rocket to my heart {3:44}
04. Almost heaven {4:23}
05. Stand {4:58}
06. Stuck on you {4:04}
07. Love walks in {4:14}
08. One lovin' touch {4:38}
09. Darling drive {3:31}
10. Saddle up {4:05}
Код:
Exact Audio Copy V0.99 prebeta 5 from 4. May 2009
EAC extraction logfile from 27. December 2009, 7:07
Paul Janz / Renegade Romantic
Used drive  : PLEXTOR DVDR   PX-716A   Adapter: 4  ID: 0
Read mode               : Secure
Utilize accurate stream : Yes
Defeat audio cache      : Yes
Make use of C2 pointers : No
Read offset correction                      : 30
Overread into Lead-In and Lead-Out          : No
Fill up missing offset samples with silence : Yes
Delete leading and trailing silent blocks   : No
Null samples used in CRC calculations       : Yes
Used interface                              : Native Win32 interface for Win NT & 2000
Gap handling                                : Appended to previous track
Used output format              : User Defined Encoder
Selected bitrate                : 1024 kBit/s
Quality                         : High
Add ID3 tag                     : Yes
Command line compressor         : C:\Program Files (x86)\Exact Audio Copy\FLAC\FLAC.EXE
Additional command line options : -6 -V -T "ARTIST=%a" -T "TITLE=%t" -T "ALBUM=%g" -T "DATE=%y" -T "TRACKNUMBER=%n" -T "GENRE=%m" -T "COMMENT=%e" %s -o %d
TOC of the extracted CD
     Track |   Start  |  Length  | Start sector | End sector
    ---------------------------------------------------------
        1  |  0:00.00 |  4:09.00 |         0    |    18674
        2  |  4:09.00 |  4:44.02 |     18675    |    39976
        3  |  8:53.02 |  3:43.58 |     39977    |    56759
        4  | 12:36.60 |  4:23.30 |     56760    |    76514
        5  | 17:00.15 |  4:57.55 |     76515    |    98844
        6  | 21:57.70 |  4:03.60 |     98845    |   117129
        7  | 26:01.55 |  4:14.30 |    117130    |   136209
        8  | 30:16.10 |  4:37.72 |    136210    |   157056
        9  | 34:54.07 |  3:31.08 |    157057    |   172889
       10  | 38:25.15 |  4:04.65 |    172890    |   191254
Track  1
     Filename C:\Users\Admin\Documents\EAC Rips\01. Paul Janz - Every little Tear.wav
     Pre-gap length  0:00:02.00
     Peak level 79.0 %
     Track quality 100.0 %
     Test CRC 77D957FD
     Copy CRC 77D957FD
     Track not present in AccurateRip database
     Copy OK
Track  2
     Filename C:\Users\Admin\Documents\EAC Rips\02. Paul Janz - Hold me tender.wav
     Pre-gap length  0:00:01.13
     Peak level 97.7 %
     Track quality 100.0 %
     Test CRC 94A36ACE
     Copy CRC 94A36ACE
     Track not present in AccurateRip database
     Copy OK
Track  3
     Filename C:\Users\Admin\Documents\EAC Rips\03. Paul Janz - Rocket to my heart.wav
     Peak level 97.7 %
     Track quality 99.9 %
     Test CRC E633B7B5
     Copy CRC E633B7B5
     Track not present in AccurateRip database
     Copy OK
Track  4
     Filename C:\Users\Admin\Documents\EAC Rips\04. Paul Janz - Almost heaven.wav
     Pre-gap length  0:00:00.73
     Peak level 80.6 %
     Track quality 100.0 %
     Test CRC 67BCA42F
     Copy CRC 67BCA42F
     Track not present in AccurateRip database
     Copy OK
Track  5
     Filename C:\Users\Admin\Documents\EAC Rips\05. Paul Janz - Stand.wav
     Pre-gap length  0:00:00.70
     Peak level 80.7 %
     Track quality 100.0 %
     Test CRC E56F1441
     Copy CRC E56F1441
     Track not present in AccurateRip database
     Copy OK
Track  6
     Filename C:\Users\Admin\Documents\EAC Rips\06. Paul Janz - Stuck on you.wav
     Pre-gap length  0:00:01.23
     Peak level 89.9 %
     Track quality 100.0 %
     Test CRC ACB83CA5
     Copy CRC ACB83CA5
     Track not present in AccurateRip database
     Copy OK
Track  7
     Filename C:\Users\Admin\Documents\EAC Rips\07. Paul Janz - Love walks in.wav
     Pre-gap length  0:00:01.03
     Peak level 97.7 %
     Track quality 100.0 %
     Test CRC 3B9E6277
     Copy CRC 3B9E6277
     Track not present in AccurateRip database
     Copy OK
Track  8
     Filename C:\Users\Admin\Documents\EAC Rips\08. Paul Janz - One lovin' touch.wav
     Pre-gap length  0:00:00.50
     Peak level 97.7 %
     Track quality 99.9 %
     Test CRC 4802C98A
     Copy CRC 4802C98A
     Track not present in AccurateRip database
     Copy OK
Track  9
     Filename C:\Users\Admin\Documents\EAC Rips\09. Paul Janz - Darling drive.wav
     Pre-gap length  0:00:01.02
     Peak level 80.9 %
     Track quality 100.0 %
     Test CRC 1423A0BC
     Copy CRC 1423A0BC
     Track not present in AccurateRip database
     Copy OK
Track 10
     Filename C:\Users\Admin\Documents\EAC Rips\10. Paul Janz - Saddle up.wav
     Pre-gap length  0:00:01.20
     Peak level 97.7 %
     Track quality 100.0 %
     Test CRC 0A808575
     Copy CRC 0A808575
     Track not present in AccurateRip database
     Copy OK
None of the tracks are present in the AccurateRip database
No errors occurred
End of status report
AUDIOCHECKER v2.0 beta (build 457) - by Dester - opdester@freemail.hu
~~~~~~~~~~~~~~~~~~~~~~~~~~~~~~~~~~
Started at: n?aaa, 13. 01. 2010. - 15:17.41
10 files found
01 -===- C:\- ?acaa? -\Paul_Janz_-_Renegade_Romantic_(1990)_[rutracker.org]\01 - Every little Tear.flac
Extracted successfully
Conclusion: this track is CDDA with probability 100%
Tempfile successfully deleted.
02 -===- C:\- ?acaa? -\Paul_Janz_-_Renegade_Romantic_(1990)_[rutracker.org]\02 - Hold me tender.flac
Extracted successfully
Conclusion: this track is CDDA with probability 100%
Tempfile successfully deleted.
03 -===- C:\- ?acaa? -\Paul_Janz_-_Renegade_Romantic_(1990)_[rutracker.org]\03 - Rocket to my heart.flac
Extracted successfully
Conclusion: this track is CDDA with probability 100%
Tempfile successfully deleted.
04 -===- C:\- ?acaa? -\Paul_Janz_-_Renegade_Romantic_(1990)_[rutracker.org]\04 - Almost heaven.flac
Extracted successfully
Conclusion: this track is CDDA with probability 100%
Tempfile successfully deleted.
05 -===- C:\- ?acaa? -\Paul_Janz_-_Renegade_Romantic_(1990)_[rutracker.org]\05 - Stand.flac
Extracted successfully
Conclusion: this track is CDDA with probability 100%
Tempfile successfully deleted.
06 -===- C:\- ?acaa? -\Paul_Janz_-_Renegade_Romantic_(1990)_[rutracker.org]\06 - Stuck on you.flac
Extracted successfully
Conclusion: this track is CDDA with probability 100%
Tempfile successfully deleted.
07 -===- C:\- ?acaa? -\Paul_Janz_-_Renegade_Romantic_(1990)_[rutracker.org]\07 - Love walks in.flac
Extracted successfully
Conclusion: this track is CDDA with probability 100%
Tempfile successfully deleted.
08 -===- C:\- ?acaa? -\Paul_Janz_-_Renegade_Romantic_(1990)_[rutracker.org]\08 - One lovin' touch.flac
Extracted successfully
Conclusion: this track is CDDA with probability 100%
Tempfile successfully deleted.
09 -===- C:\- ?acaa? -\Paul_Janz_-_Renegade_Romantic_(1990)_[rutracker.org]\09 - Darling drive.flac
Extracted successfully
Conclusion: this track is CDDA with probability 100%
Tempfile successfully deleted.
10 -===- C:\- ?acaa? -\Paul_Janz_-_Renegade_Romantic_(1990)_[rutracker.org]\10 - Saddle up.flac
Extracted successfully
Conclusion: this track is CDDA with probability 100%
Tempfile successfully deleted.
Finished at: n?aaa, 13. 01. 2010. - 15:24.43 (operation time: 0:07.02)
This album () seems to be CDDA with probability 100,00%
Доп. информация: Источник - The Pirate Bay (релизёр Kitlope) | Amazon
From Wiki:
Paul Janz (born in 1951 in Three Hills, Alberta, Canada and raised in Basel, Switzerland) is a Canadian theologian, and formerly a prominent singer-songwriter of pop rock music in the mainstream and contemporary Christian markets. He is known for the hits "Every Little Tear," "Close My Eyes," "Stand," "I Won't Cry" and many others.
He began his music career in the 1970s with his brothers in a band called Deliverance, best remembered for the hit "Leaving LA", released in 1979. In 1984, he launched his solo career, which culminated in four projects with a string of chart-topping hits from each album. The success of his projects led to his nomination for the Juno Awards, Canada's most prominent music award. Despite achieving great success in Canada, his record label's restructuring of its roster of artists led to the end of A & R promotion in the American market. Janz's final project, Trust, which was recorded under the Attic Records label, continued the same ground-breaking tradition with Janz's trademark lyrical compositions and driving melodic rhythms. Since that time, Janz hasn't released any new material.
Presently a Lecturer in Systematic Theology and Deputy Head of Theology and Religious Studies at King's College London, he formerly taught philosophy at Trinity Western University in Langley, British Columbia and has recently written a book entitled God, the Mind's Desire: Reference, Reason and Christian Thinking[1] published by Cambridge University Press. In 2004, Paul's first album High Strung was re-released on CD for the first time by Escape Music in the UK.
Правила, инструкции, FAQ!!!
Торрент  Добавлен [26 мар 2019, 19:09] Скачать торрент Магнет ссылка
Скачать торрент
[ Размер 11.89 КБ / Просмотров 2 ]

Статус
Проверен 
 
Размер  273.79 МБ
Приватный: Нет (DHT включён)
.torrent скачан  1
 


     Отправить личное сообщение
   
Страница 1 из 1
Показать сообщения за:  Поле сортировки  
Начать новую тему Ответить на тему


Сейчас этот форум просматривают: нет зарегистрированных пользователей и гости: 0


Вы не можете начинать темы
Вы не можете отвечать на сообщения
Вы не можете редактировать свои сообщения
Вы не можете удалять свои сообщения
Вы не можете добавлять вложения

Перейти:  
cron