Начать новую тему Ответить на тему
Статистика раздачи
Размер: 196.21 МБ | Добавлен: 26 мар 2019, 18:37 | Скачали: 0
Сидеров: 0  [0 байт/сек]    Личеров: 0  [0 байт/сек]
Пред. тема | След. тема 

Автор
Сообщение

СообщениеДобавлено: 26 мар 2019, 18:37 

Ответить с цитатой 

Osmonds-Osmonds
Жанр: Pop-rock
Год выпуска диска: 1970
Страна: USA
Аудио кодек: FLAC
Тип рипа: image+.cue
Битрейт аудио: lossless
Продолжительность: 32:08
Трэклист:
1.Think
2.One Band Apple
3.Catch Me Baby
4.Lonesome They Call Me,Lonesome I Am
5.Motown Special
6.Sweet And Innocent
7.He Ain't Heavy,He's My Brother
8.Find'em,Fool'em And Forget'em
9.Most Of All
10.Flirtin'
Exact Audio Copy V0.99 prebeta 4 from 23. January 2008
Отчёт EAC об извлечении, выполненном 24. мая 2009, 19:51
Osmonds / Osmonds
Дисковод: Optiarc DVD RW AD-7200S Adapter: 4 ID: 0
Режим чтения : Достоверность
Использование точного потока : Да
Отключение кэша аудио : Да
Использование указателей C2 : Нет
Коррекция смещения при чтении : 48
Способность читать области Lead-in и Lead-out : Нет
Заполнение пропущенных сэмплов тишиной : Да
Удаление блоков с тишиной в начале и конце : Нет
При вычислениях CRC использовались нулевые сэмплы : Да
Интерфейс : Установленный внешний ASPI-интерфейс
Выходной формат : Пользовательский кодировщик
Выбранный битрейт : 768 kBit/s
Качество : Высокий
Добавление ID3-тэга : Нет
Утилита сжатия : C:\Program Files\Exact Audio Copy\FLAC\FLAC.EXE
Дополнительные параметры : -6 -V -T "ARTIST=%a" -T "TITLE=%t" -T "ALBUM=%g" -T "DATE=%y" -T "TRACKNUMBER=%n" -T "GENRE=%m" -T "COMMENT=%e" %s -o %d
TOC извлечённого CD
Трек | Старт | Длительность | Начальный сектор | Конечный сектор
---------------------------------------------------------------------
1 | 0:00.00 | 3:02.22 | 0 | 13671
2 | 3:02.22 | 2:46.43 | 13672 | 26164
3 | 5:48.65 | 4:16.21 | 26165 | 45385
4 | 10:05.11 | 2:39.10 | 45386 | 57320
5 | 12:44.21 | 3:33.52 | 57321 | 73347
6 | 16:17.73 | 3:00.29 | 73348 | 86876
7 | 19:18.27 | 4:04.08 | 86877 | 105184
8 | 23:22.35 | 2:41.38 | 105185 | 117297
9 | 26:03.73 | 3:01.50 | 117298 | 130922
10 | 29:05.48 | 3:02.31 | 130923 | 144603
Характеристики диапазона извлечения и сообщения об ошибках
Выбранный диапазон
Имя файла D:\Upload\Osmonds-Osmonds\Osmonds - Osmonds.wav
Пиковый уровень 92.2 %
Качество диапазона 100.0 %
CRC копии BF28D923
Копирование... OK
Ошибок не произошло
Конец отчёта
Рип мой с пиратского диска,источник-моя коллекция CD
Правила, инструкции, FAQ!!!
Торрент  Добавлен [26 мар 2019, 18:37] Скачать торрент Магнет ссылка
Скачать торрент
[ Размер 16.1 КБ / Просмотров 1 ]

Статус
Проверен 
 
Размер  196.21 МБ
Приватный: Нет (DHT включён)
.torrent скачан  0
 


     Отправить личное сообщение
   
Страница 1 из 1
Показать сообщения за:  Поле сортировки  
Начать новую тему Ответить на тему


Сейчас этот форум просматривают: нет зарегистрированных пользователей и гости: 0


Вы не можете начинать темы
Вы не можете отвечать на сообщения
Вы не можете редактировать свои сообщения
Вы не можете удалять свои сообщения
Вы не можете добавлять вложения

Перейти:  
cron