Начать новую тему Ответить на тему
Статистика раздачи
Размер: 224.9 МБ | Добавлен: 18 июн 2020, 06:29 | Скачали: 0
Сидеров: 0  [0 байт/сек]    Личеров: 0  [0 байт/сек]
Пред. тема | След. тема 

Автор
Сообщение

СообщениеДобавлено: 18 июн 2020, 06:29 

Ответить с цитатой 

Olympic / Prázdniny Na Zemi...?
Жанр: Pop Rock
Носитель: CD
Страна-производитель диска (релиза): Czechoslovakia
Год издания: 1980 (1992)
Издатель (лейбл): Supraphon
Номер по каталогу: 10 2600-2 311
Страна исполнителя (группы): Czechia
Аудиокодек: FLAC (*.flac)
Тип рипа: image+.cue
Продолжительность: 37:53
Источник: собственный рип
Наличие сканов в содержимом раздачи: да
Треклист:
1 Přilet 5:52
2 Kraj, Odkud Odletěli Ptáci (Ptáci) 4:58
3 Co Všechno Se Může Stát (Voda) 4:34
4 Nechoď Dál! (Město) 3:07
5 Strom 4:08
6 Vzdálenosti (Země) 3:57
7 Rezervace Motýlů 3:02
8 To Nic, To Jen Vzduch (Vzduch) 3:28
9 Návrat 4:46
Код:
Exact Audio Copy V1.3 from 2. September 2016
Отчёт EAC об извлечении, выполненном 11. июня 2020, 0:26
Olympic / 1992. Prázdniny Na Zemi... (Supraphon, Czechoslovakia, 10 2600-2 311)
Дисковод: ASUS    BW-16D1HT   Adapter: 0  ID: 0
Режим чтения                 : Достоверность
Использование точного потока : Да
Отключение кэша аудио        : Да
Использование указателей C2  : Нет
Коррекция смещения при чтении                     : 6
Способность читать области Lead-in и Lead-out     : Нет
Заполнение пропущенных сэмплов тишиной            : Да
Удаление блоков с тишиной в начале и конце        : Нет
При вычислениях CRC использовались нулевые сэмплы : Да
Интерфейс                                         : Установленный внешний ASPI-интерфейс
Выходной формат          : Пользовательский кодировщик
Выбранный битрейт        : 128 kBit/s
Качество                 : Высокий
Добавление ID3-тега      : Нет
Утилита сжатия           : C:\Program Files (x86)\Exact Audio Copy\Flac\flac.exe
Дополнительные параметры : -V -8 -T "Date=%year%" -T "Genre=%genre%" %source%
TOC извлечённого CD
     Трек |   Старт  | Длительность | Начальный сектор | Конечный сектор
    ---------------------------------------------------------------------
       1  |  0:00.33 |    5:52.00   |          33      |      26432
       2  |  5:52.33 |    4:58.05   |       26433      |      48787
       3  | 10:50.38 |    4:34.10   |       48788      |      69347
       4  | 15:24.48 |    3:07.27   |       69348      |      83399
       5  | 18:32.00 |    4:07.33   |       83400      |     101957
       6  | 22:39.33 |    3:57.40   |      101958      |     119772
       7  | 26:36.73 |    3:02.10   |      119773      |     133432
       8  | 29:39.08 |    3:27.47   |      133433      |     149004
       9  | 33:06.55 |    4:46.63   |      149005      |     170517
Характеристики диапазона извлечения и сообщения об ошибках
Выбранный диапазон
     Имя файла F:\02.Olympic\08.Prázdniny Na Zemi... [Full-Length] (1980)\1992. Prázdniny Na Zemi... (Supraphon, Czechoslovakia, 10 2600-2 311) 1st Press\Flac\Olympic - 1992. Prázdniny Na Zemi... (Supraphon, Czechoslovakia, 10 2600-2 311).wav
     Пиковый уровень 97.2 %
     Скорость извлечения 3.0 X
     Качество диапазона 100.0 %
     CRC теста 6E3B5D0D
     CRC копии 6E3B5D0D
     Копирование... OK
Ошибок не произошло
AccurateRip: сводка
Трек  1  : извлечено точно (доверие 3)  [B9E74519]  (AR v2)
Трек  2  : извлечено точно (доверие 3)  [AEFD7AF4]  (AR v2)
Трек  3  : извлечено точно (доверие 3)  [AD114BAD]  (AR v2)
Трек  4  : извлечено точно (доверие 3)  [A705F5D3]  (AR v2)
Трек  5  : извлечено точно (доверие 3)  [F328C94E]  (AR v2)
Трек  6  : извлечено точно (доверие 3)  [55DB8F09]  (AR v2)
Трек  7  : извлечено точно (доверие 3)  [0F290BE1]  (AR v2)
Трек  8  : извлечено точно (доверие 3)  [8B89474F]  (AR v2)
Трек  9  : извлечено точно (доверие 3)  [A8F669E4]  (AR v2)
Все треки извлечены точно
Конец отчёта
==== Контрольная сумма отчёта C7AB7E95A68A3B751717439BB40DBD79B2E873F3AAEF495616231B98D0352D90 ====
Код:
REM GENRE "Pop Rock"
REM DATE 1980
REM DISCID 8008E109
REM COMMENT "ExactAudioCopy v1.3"
PERFORMER "Olympic"
TITLE "1992. Prazdniny Na Zemi... (Supraphon, Czechoslovakia, 10 2600-2 311)"
REM COMPOSER ""
FILE "Olympic - 1992. Prazdniny Na Zemi... (Supraphon, Czechoslovakia, 10 2600-2 311).flac" WAVE
  TRACK 01 AUDIO
    TITLE "Prilet"
    PERFORMER "Olympic"
    REM COMPOSER "Petr Janda, Zdenek Rytir"
    INDEX 00 00:00:00
    INDEX 01 00:00:33
  TRACK 02 AUDIO
    TITLE "Kraj, Odkud Odleteli Ptaci (Ptaci)"
    PERFORMER "Olympic"
    REM COMPOSER "Petr Janda, Zdenek Rytir"
    INDEX 01 05:52:33
  TRACK 03 AUDIO
    TITLE "Co Vsechno Se Muze Stat (Voda)"
    PERFORMER "Olympic"
    REM COMPOSER "Petr Janda, Zdenek Rytir"
    INDEX 01 10:50:38
  TRACK 04 AUDIO
    TITLE "Nechod Dal! (Mesto)"
    PERFORMER "Olympic"
    REM COMPOSER "Petr Janda, Zdenek Rytir"
    INDEX 01 15:24:48
  TRACK 05 AUDIO
    TITLE "Strom"
    PERFORMER "Olympic"
    REM COMPOSER "Petr Janda, Zdenek Rytir"
    INDEX 01 18:32:00
  TRACK 06 AUDIO
    TITLE "Vzdalenosti (Zeme)"
    PERFORMER "Olympic"
    REM COMPOSER "Petr Janda, Zdenek Rytir"
    INDEX 01 22:39:33
  TRACK 07 AUDIO
    TITLE "Rezervace Motylu"
    PERFORMER "Olympic"
    REM COMPOSER "Petr Janda, Zdenek Rytir"
    INDEX 01 26:36:73
  TRACK 08 AUDIO
    TITLE "To Nic, To Jen Vzduch (Vzduch)"
    PERFORMER "Olympic"
    REM COMPOSER "Petr Janda, Zdenek Rytir"
    INDEX 01 29:39:08
  TRACK 09 AUDIO
    TITLE "Navrat"
    PERFORMER "Olympic"
    REM COMPOSER "Petr Janda, Zdenek Rytir"
    INDEX 01 33:06:55
Правила, инструкции, FAQ!!!
Торрент  Добавлен [18 июн 2020, 06:29] Скачать торрент Магнет ссылка
Скачать торрент
[ Размер 18.6 КБ / Просмотров 2 ]

Статус
Проверен 
 
Размер  224.9 МБ
Приватный: Нет (DHT включён)
.torrent скачан  0
 


     Отправить личное сообщение
   
Страница 1 из 1
Показать сообщения за:  Поле сортировки  
Начать новую тему Ответить на тему


Сейчас этот форум просматривают: нет зарегистрированных пользователей и гости: 0


Вы не можете начинать темы
Вы не можете отвечать на сообщения
Вы не можете редактировать свои сообщения
Вы не можете удалять свои сообщения
Вы не можете добавлять вложения

Перейти:  
cron