Начать новую тему Ответить на тему
Статистика раздачи
Размер: 247.38 МБ | Добавлен: 02 авг 2020, 20:40 | Скачали: 0
Сидеров: 0  [0 байт/сек]    Личеров: 0  [0 байт/сек]
Пред. тема | След. тема 

Автор
Сообщение

СообщениеДобавлено: 02 авг 2020, 20:40 

Ответить с цитатой 

Olympic / Pták Rosomák
Жанр: Pop Rock
Носитель: CD
Страна-производитель диска (релиза): Czechoslovakia
Год издания: 1969 (1990)
Издатель (лейбл): Supraphon
Номер по каталогу: 10 0589-2 311
Страна исполнителя (группы): Czechia
Аудиокодек: FLAC (*.flac)
Тип рипа: image+.cue
Продолжительность: 40:36
Источник: собственный рип
Наличие сканов в содержимом раздачи: да
Треклист:
1 Krásná Neznámá 2:30
2 Ikarus Blues 5:00
3 Báječné Místo 4:30
4 Everybody 3:50
5 O Půlnoci 2:50
6 Pták Rosomák 2:50
7 Tvé Neklidné Svědomí 3:30
8 Čekám Na Zázrak 2:55
9 Z Bílé Černou 2:45
10 Pohřeb Své Vlastní Duše 4:05
11 Kamenožrout Zelený 3:45
12 Svatojánský Happening 2:25
Код:
Exact Audio Copy V1.3 from 2. September 2016
Отчёт EAC об извлечении, выполненном 31. марта 2020, 18:05
Olympic / 1990. Pták Rosomák (Supraphon, Czechoslovakia, 10 0589-2 311)
Дисковод: ASUS    BW-16D1HT   Adapter: 0  ID: 0
Режим чтения                 : Достоверность
Использование точного потока : Да
Отключение кэша аудио        : Да
Использование указателей C2  : Нет
Коррекция смещения при чтении                     : 6
Способность читать области Lead-in и Lead-out     : Нет
Заполнение пропущенных сэмплов тишиной            : Да
Удаление блоков с тишиной в начале и конце        : Нет
При вычислениях CRC использовались нулевые сэмплы : Да
Интерфейс                                         : Установленный внешний ASPI-интерфейс
Выходной формат          : Пользовательский кодировщик
Выбранный битрейт        : 128 kBit/s
Качество                 : Высокий
Добавление ID3-тега      : Нет
Утилита сжатия           : C:\Program Files (x86)\Exact Audio Copy\Flac\flac.exe
Дополнительные параметры : -V -8 -T "Date=%year%" -T "Genre=%genre%" %source%
TOC извлечённого CD
     Трек |   Старт  | Длительность | Начальный сектор | Конечный сектор
    ---------------------------------------------------------------------
       1  |  0:00.32 |    2:30.15   |          32      |      11296
       2  |  2:30.47 |    5:00.08   |       11297      |      33804
       3  |  7:30.55 |    4:24.10   |       33805      |      53614
       4  | 11:54.65 |    3:50.27   |       53615      |      70891
       5  | 15:45.17 |    2:45.00   |       70892      |      83266
       6  | 18:30.17 |    2:52.40   |       83267      |      96206
       7  | 21:22.57 |    3:32.48   |       96207      |     112154
       8  | 24:55.30 |    2:53.15   |      112155      |     125144
       9  | 27:48.45 |    2:39.65   |      125145      |     137134
      10  | 30:28.35 |    4:05.20   |      137135      |     155529
      11  | 34:33.55 |    3:40.12   |      155530      |     172041
      12  | 38:13.67 |    2:22.08   |      172042      |     182699
Характеристики диапазона извлечения и сообщения об ошибках
Выбранный диапазон
     Имя файла F:\02.Olympic\02.Pták Rosomák [Full-Length] (1969)\1990. Pták Rosomák (Supraphon, Czechoslovakia, 10 0589-2 311) 1st Press\Flac\Olympic - 1990. Pták Rosomák (Supraphon, Czechoslovakia, 10 0589-2 311).wav
     Пиковый уровень 93.7 %
     Скорость извлечения 6.7 X
     Качество диапазона 100.0 %
     CRC теста ECE3525B
     CRC копии ECE3525B
     Копирование... OK
Ошибок не произошло
AccurateRip: сводка
Трек  1  : извлечено точно (доверие 4)  [34E81A68]  (AR v1)
Трек  2  : извлечено точно (доверие 4)  [9480DFCC]  (AR v1)
Трек  3  : извлечено точно (доверие 4)  [7D059209]  (AR v1)
Трек  4  : извлечено точно (доверие 4)  [B1117622]  (AR v1)
Трек  5  : извлечено точно (доверие 4)  [191495EC]  (AR v1)
Трек  6  : извлечено точно (доверие 4)  [5E2C2C73]  (AR v1)
Трек  7  : извлечено точно (доверие 3)  [D0B3F299]  (AR v1)
Трек  8  : извлечено точно (доверие 4)  [34438BE3]  (AR v1)
Трек  9  : извлечено точно (доверие 4)  [170398EC]  (AR v1)
Трек 10  : извлечено точно (доверие 4)  [EB644B7F]  (AR v1)
Трек 11  : извлечено точно (доверие 4)  [D54C61EB]  (AR v1)
Трек 12  : извлечено точно (доверие 4)  [BE1A89CC]  (AR v1)
Все треки извлечены точно
Конец отчёта
==== Контрольная сумма отчёта 044A523CA23B4E805CFB5216D16FE3B041EF7783966F7798C85FB658A21C3395 ====
Код:
REM GENRE "Pop Rock"
REM DATE 1969
REM DISCID 9A09840C
REM COMMENT "ExactAudioCopy v1.3"
PERFORMER "Olympic"
TITLE "1990. Ptak Rosomak (Supraphon, Czechoslovakia, 10 0589-2 311)"
REM COMPOSER ""
FILE "Olympic - 1990. Ptak Rosomak (Supraphon, Czechoslovakia, 10 0589-2 311).flac" WAVE
  TRACK 01 AUDIO
    TITLE "Krasna Neznama"
    PERFORMER "Olympic"
    REM COMPOSER "Petr Janda, Pavel Chrastina"
    INDEX 00 00:00:00
    INDEX 01 00:00:32
  TRACK 02 AUDIO
    TITLE "Ikarus blues"
    PERFORMER "Olympic"
    REM COMPOSER "Ladislav Klein, Zdenek Rytir "
    INDEX 00 02:27:22
    INDEX 01 02:30:47
  TRACK 03 AUDIO
    TITLE "Bajecne Misto"
    PERFORMER "Olympic"
    REM COMPOSER "Petr Janda, Pavel Chrastina"
    INDEX 00 07:27:50
    INDEX 01 07:30:55
  TRACK 04 AUDIO
    TITLE "Everybody"
    PERFORMER "Olympic"
    REM COMPOSER "Petr Janda, Pavel Chrastina"
    INDEX 00 11:52:20
    INDEX 01 11:54:65
  TRACK 05 AUDIO
    TITLE "O Pulnoci"
    PERFORMER "Olympic"
    REM COMPOSER "Petr Janda, Pavel Chrastina"
    INDEX 00 15:42:15
    INDEX 01 15:45:17
  TRACK 06 AUDIO
    TITLE "Ptak Rosomak"
    PERFORMER "Olympic"
    REM COMPOSER "Petr Janda, Pavel Chrastina"
    INDEX 00 18:27:00
    INDEX 01 18:30:17
  TRACK 07 AUDIO
    TITLE "Tve Neklidne Svedomi"
    PERFORMER "Olympic"
    REM COMPOSER "Petr Janda, Pavel Chrastina"
    INDEX 00 21:19:37
    INDEX 01 21:22:57
  TRACK 08 AUDIO
    TITLE "Cekam Na Zazrak"
    PERFORMER "Olympic"
    REM COMPOSER "Petr Janda, Pavel Chrastina"
    INDEX 00 24:52:17
    INDEX 01 24:55:30
  TRACK 09 AUDIO
    TITLE "Z Bile Cernou"
    PERFORMER "Olympic"
    REM COMPOSER "Petr Janda, Pavel Chrastina"
    INDEX 00 27:45:32
    INDEX 01 27:48:45
  TRACK 10 AUDIO
    TITLE "Pohreb Sve Vlastni Duse"
    PERFORMER "Olympic"
    REM COMPOSER "Petr Janda, Pavel Chrastina"
    INDEX 00 30:25:15
    INDEX 01 30:28:35
  TRACK 11 AUDIO
    TITLE "Kamenozrout Zeleny"
    PERFORMER "Olympic"
    REM COMPOSER "Petr Janda, Pavel Chrastina"
    INDEX 00 34:30:37
    INDEX 01 34:33:55
  TRACK 12 AUDIO
    TITLE "Svatojansky Happening"
    PERFORMER "Olympic"
    REM COMPOSER "Petr Janda, Pavel Chrastina"
    INDEX 00 38:10:47
    INDEX 01 38:13:67
Правила, инструкции, FAQ!!!
Торрент  Добавлен [02 авг 2020, 20:40] Скачать торрент Магнет ссылка
Скачать торрент
[ Размер 20.33 КБ / Просмотров 0 ]

Статус
Проверен 
 
Размер  247.38 МБ
Приватный: Нет (DHT включён)
.torrent скачан  0
 


     Отправить личное сообщение
   
Страница 1 из 1
Показать сообщения за:  Поле сортировки  
Начать новую тему Ответить на тему


Сейчас этот форум просматривают: нет зарегистрированных пользователей и гости: 0


Вы не можете начинать темы
Вы не можете отвечать на сообщения
Вы не можете редактировать свои сообщения
Вы не можете удалять свои сообщения
Вы не можете добавлять вложения

Перейти:  
cron