Начать новую тему Ответить на тему
Статистика раздачи
Размер: 223.68 МБ | Добавлен: 02 авг 2020, 20:40 | Скачали: 0
Сидеров: 0  [0 байт/сек]    Личеров: 0  [0 байт/сек]
Пред. тема | След. тема 

Автор
Сообщение

СообщениеДобавлено: 02 авг 2020, 20:40 

Ответить с цитатой 

Olympic / Olympic 4
Жанр: Pop Rock
Носитель: CD
Страна-производитель диска (релиза): Czechoslovakia
Год издания: 1974 (1992)
Издатель (лейбл): Supraphon
Номер по каталогу: 10 1475-2 311
Страна исполнителя (группы): Czechia
Аудиокодек: FLAC (*.flac)
Тип рипа: image+.cue
Продолжительность: 38:03
Источник: собственный рип
Наличие сканов в содержимом раздачи: да
Треклист:
1 Karneval
2 Stará Láhev
3 Konec Konců
4 Blázen
5 Únos
6 Harém
7 Jsem Zvláštní
8 Vůně Benzinu
9 Kánon
Код:
Exact Audio Copy V1.3 from 2. September 2016
Отчёт EAC об извлечении, выполненном 14. апреля 2020, 21:14
Olympic / 1992. Olympic 4 (Supraphon, Czechoslovakia, 10 1475-2 311)
Дисковод: ASUS    BW-16D1HT   Adapter: 0  ID: 0
Режим чтения                 : Достоверность
Использование точного потока : Да
Отключение кэша аудио        : Да
Использование указателей C2  : Нет
Коррекция смещения при чтении                     : 6
Способность читать области Lead-in и Lead-out     : Нет
Заполнение пропущенных сэмплов тишиной            : Да
Удаление блоков с тишиной в начале и конце        : Нет
При вычислениях CRC использовались нулевые сэмплы : Да
Интерфейс                                         : Установленный внешний ASPI-интерфейс
Выходной формат          : Пользовательский кодировщик
Выбранный битрейт        : 128 kBit/s
Качество                 : Высокий
Добавление ID3-тега      : Нет
Утилита сжатия           : C:\Program Files (x86)\Exact Audio Copy\Flac\flac.exe
Дополнительные параметры : -V -8 -T "Date=%year%" -T "Genre=%genre%" %source%
TOC извлечённого CD
     Трек |   Старт  | Длительность | Начальный сектор | Конечный сектор
    ---------------------------------------------------------------------
       1  |  0:00.33 |    3:56.62   |          33      |      17794
       2  |  3:57.20 |    3:27.13   |       17795      |      33332
       3  |  7:24.33 |    3:39.32   |       33333      |      49789
       4  | 11:03.65 |    3:02.68   |       49790      |      63507
       5  | 14:06.58 |    5:09.55   |       63508      |      86737
       6  | 19:16.38 |    4:55.12   |       86738      |     108874
       7  | 24:11.50 |    5:30.35   |      108875      |     133659
       8  | 29:42.10 |    4:22.40   |      133660      |     153349
       9  | 34:04.50 |    3:59.03   |      153350      |     171277
Характеристики диапазона извлечения и сообщения об ошибках
Выбранный диапазон
     Имя файла F:\02.Olympic\04.Olympic 4 [Full-Album] (1974)\1992. Olympic 4 (Supraphon, Czechoslovakia, 10 1475-2 311) 1st Press\Flac\Olympic - 1992. Olympic 4 (Supraphon, Czechoslovakia, 10 1475-2 311).wav
     Пиковый уровень 95.1 %
     Скорость извлечения 6.7 X
     Качество диапазона 100.0 %
     CRC теста 940BC74C
     CRC копии 940BC74C
     Копирование... OK
Ошибок не произошло
AccurateRip: сводка
Трек  1  : извлечено точно (доверие 1)  [96979632]  (AR v2)
Трек  2  : извлечено точно (доверие 1)  [7DAA1A96]  (AR v2)
Трек  3  : извлечено точно (доверие 1)  [EEA11F15]  (AR v2)
Трек  4  : извлечено точно (доверие 1)  [1D4D226C]  (AR v2)
Трек  5  : извлечено точно (доверие 1)  [D940DEE0]  (AR v2)
Трек  6  : извлечено точно (доверие 1)  [6E30E652]  (AR v2)
Трек  7  : извлечено точно (доверие 1)  [E5760B1C]  (AR v2)
Трек  8  : извлечено точно (доверие 1)  [4A074672]  (AR v2)
Трек  9  : извлечено точно (доверие 1)  [A41AFA67]  (AR v2)
Все треки извлечены точно
Конец отчёта
==== Контрольная сумма отчёта 69C6E5A0042390F4BB597EC9FD84304F988CE733F28508B7C41391EADE369D4F ====
Код:
REM GENRE "Pop Rock"
REM DATE 1974
REM DISCID 7F08EB09
REM COMMENT "ExactAudioCopy v1.3"
PERFORMER "Olympic"
TITLE "1992. Olympic 4 (Supraphon, Czechoslovakia, 10 1475-2 311)"
REM COMPOSER ""
FILE "Olympic - 1992. Olympic 4 (Supraphon, Czechoslovakia, 10 1475-2 311).flac" WAVE
  TRACK 01 AUDIO
    TITLE "Karneval"
    PERFORMER "Olympic"
    REM COMPOSER "Petr Hejduk, Vaclav Fischer"
    INDEX 00 00:00:00
    INDEX 01 00:00:33
  TRACK 02 AUDIO
    TITLE "Stara Lahev"
    PERFORMER "Olympic"
    REM COMPOSER "Petr Janda, Vaclav Fischer"
    INDEX 00 03:53:38
    INDEX 01 03:57:20
  TRACK 03 AUDIO
    TITLE "Konec Koncu"
    PERFORMER "Olympic"
    REM COMPOSER "Petr Hejduk, Libor Kristek"
    INDEX 00 07:20:58
    INDEX 01 07:24:33
  TRACK 04 AUDIO
    TITLE "Blazen"
    PERFORMER "Olympic"
    REM COMPOSER "Petr Janda, Michael Prostejovsky"
    INDEX 00 11:00:30
    INDEX 01 11:03:65
  TRACK 05 AUDIO
    TITLE "Unos"
    PERFORMER "Olympic"
    REM COMPOSER "Petr Janda, Zdenek Rytir"
    INDEX 00 14:04:35
    INDEX 01 14:06:58
  TRACK 06 AUDIO
    TITLE "Harem"
    PERFORMER "Olympic"
    REM COMPOSER "Petr Janda, Vaclav Fischer"
    INDEX 00 19:12:15
    INDEX 01 19:16:38
  TRACK 07 AUDIO
    TITLE "Jsem Zvlastni"
    PERFORMER "Olympic"
    REM COMPOSER "Petr Janda, Miroslav Cerny"
    INDEX 00 24:08:15
    INDEX 01 24:11:50
  TRACK 08 AUDIO
    TITLE "Vune Benzinu"
    PERFORMER "Olympic"
    REM COMPOSER "Petr Janda, Vaclav Fischer"
    INDEX 00 29:38:43
    INDEX 01 29:42:10
  TRACK 09 AUDIO
    TITLE "Kanon"
    PERFORMER "Olympic"
    REM COMPOSER "Petr Janda, Zdenek Rytir"
    INDEX 00 34:00:68
    INDEX 01 34:04:50
Правила, инструкции, FAQ!!!
Торрент  Добавлен [02 авг 2020, 20:40] Скачать торрент Магнет ссылка
Скачать торрент
[ Размер 18.46 КБ / Просмотров 0 ]

Статус
Проверен 
 
Размер  223.68 МБ
Приватный: Нет (DHT включён)
.torrent скачан  0
 


     Отправить личное сообщение
   
Страница 1 из 1
Показать сообщения за:  Поле сортировки  
Начать новую тему Ответить на тему


Сейчас этот форум просматривают: нет зарегистрированных пользователей и гости: 0


Вы не можете начинать темы
Вы не можете отвечать на сообщения
Вы не можете редактировать свои сообщения
Вы не можете удалять свои сообщения
Вы не можете добавлять вложения

Перейти:  
cron