Начать новую тему Ответить на тему
Статистика раздачи
Размер: 243.68 МБ | Добавлен: 15 май 2020, 16:38 | Скачали: 0
Сидеров: 0  [0 байт/сек]    Личеров: 0  [0 байт/сек]
Пред. тема | След. тема 

Автор
Сообщение

СообщениеДобавлено: 15 май 2020, 16:38 

Ответить с цитатой 

Olympic / Marathón
Жанр: Pop Rock
Носитель: CD
Страна-производитель диска (релиза): Czechoslovakia
Год издания: 1978 (1992)
Издатель (лейбл): Supraphon
Номер по каталогу: 10 2119-2 311
Страна исполнителя (группы): Czechia
Аудиокодек: FLAC (*.flac)
Тип рипа: image+.cue
Продолжительность: 39:34
Источник: собственный рип
Наличие сканов в содержимом раздачи: да
Треклист:
1 Jako Kluci Začli Jsme Hrát 7:14
2 Mráz 4:49
3 Černá Kronika 5:13
4 Tak Teto, Tady Je To 1:57
5 Marathón 7:43
6 Taky Jsem Se Narodil Bos 4:15
7 Nech To Být 3:13
8 Tak Jedem Dál 4:47
Код:
Exact Audio Copy V1.3 from 2. September 2016
Отчёт EAC об извлечении, выполненном 5. мая 2020, 18:10
Olympic / 1992. Marathón (Supraphon, Czechoslovakia, 10 2119-2 311)
Дисковод: ASUS    BW-16D1HT   Adapter: 0  ID: 0
Режим чтения                 : Достоверность
Использование точного потока : Да
Отключение кэша аудио        : Да
Использование указателей C2  : Нет
Коррекция смещения при чтении                     : 6
Способность читать области Lead-in и Lead-out     : Нет
Заполнение пропущенных сэмплов тишиной            : Да
Удаление блоков с тишиной в начале и конце        : Нет
При вычислениях CRC использовались нулевые сэмплы : Да
Интерфейс                                         : Установленный внешний ASPI-интерфейс
Выходной формат          : Пользовательский кодировщик
Выбранный битрейт        : 128 kBit/s
Качество                 : Высокий
Добавление ID3-тега      : Нет
Утилита сжатия           : C:\Program Files (x86)\Exact Audio Copy\Flac\flac.exe
Дополнительные параметры : -V -8 -T "Date=%year%" -T "Genre=%genre%" %source%
TOC извлечённого CD
     Трек |   Старт  | Длительность | Начальный сектор | Конечный сектор
    ---------------------------------------------------------------------
       1  |  0:00.33 |    7:18.52   |          33      |      32934
       2  |  7:19.10 |    4:52.20   |       32935      |      54854
       3  | 12:11.30 |    5:15.30   |       54855      |      78509
       4  | 17:26.60 |    2:00.38   |       78510      |      87547
       5  | 19:27.23 |    7:45.40   |       87548      |     122462
       6  | 27:12.63 |    4:18.00   |      122463      |     141812
       7  | 31:30.63 |    3:16.02   |      141813      |     156514
       8  | 34:46.65 |    4:47.55   |      156515      |     178094
Характеристики диапазона извлечения и сообщения об ошибках
Выбранный диапазон
     Имя файла F:\02.Olympic\06.Marathón [Full-Length] (1978)\1992. Marathón (Supraphon, Czechoslovakia, 10 2119-2 311) 1st Press\Flac\Olympic - 1992. Marathón (Supraphon, Czechoslovakia, 10 2119-2 311).wav
     Пиковый уровень 97.7 %
     Скорость извлечения 6.8 X
     Качество диапазона 100.0 %
     CRC теста 81D26BCB
     CRC копии 81D26BCB
     Копирование... OK
Ошибок не произошло
AccurateRip: сводка
Трек  1  отсутствует в базе данных
Трек  2  отсутствует в базе данных
Трек  3  отсутствует в базе данных
Трек  4  отсутствует в базе данных
Трек  5  отсутствует в базе данных
Трек  6  отсутствует в базе данных
Трек  7  отсутствует в базе данных
Трек  8  отсутствует в базе данных
Ни одного трека нет в базе AccurateRip
Конец отчёта
==== Контрольная сумма отчёта 302A75ED35420B1B35ABA39F83CAB882B74B9F0DABF3801573F0431EDEB61590 ====
Код:
REM GENRE "Pop Rock"
REM DATE 1978
REM DISCID 6A094608
REM COMMENT "ExactAudioCopy v1.3"
PERFORMER "Olympic"
TITLE "1992. Marathon (Supraphon, Czechoslovakia, 10 2119-2 311)"
REM COMPOSER ""
FILE "Olympic - 1992. Marathon (Supraphon, Czechoslovakia, 10 2119-2 311).flac" WAVE
  TRACK 01 AUDIO
    TITLE "Jako Kluci Zacli Jsme Hrat"
    PERFORMER "Olympic"
    REM COMPOSER "Petr Janda, Zdenek Borovec"
    INDEX 00 00:00:00
    INDEX 01 00:00:33
  TRACK 02 AUDIO
    TITLE "Mraz"
    PERFORMER "Olympic"
    REM COMPOSER "Petr Hejduk, Jiri Oulik  "
    INDEX 00 07:15:68
    INDEX 01 07:19:10
  TRACK 03 AUDIO
    TITLE "Cerna Kronika"
    PERFORMER "Olympic"
    REM COMPOSER "Petr Janda, Zdenek Rytir"
    INDEX 00 12:08:48
    INDEX 01 12:11:30
  TRACK 04 AUDIO
    TITLE "Tak Teto, Tady Je To"
    PERFORMER "Olympic"
    REM COMPOSER "Petr Hejduk, Zdenek Borovec"
    INDEX 00 17:24:23
    INDEX 01 17:26:60
  TRACK 05 AUDIO
    TITLE "Marathon"
    PERFORMER "Olympic"
    REM COMPOSER "Petr Janda, Jiri Oulik  "
    INDEX 00 19:25:58
    INDEX 01 19:27:23
  TRACK 06 AUDIO
    TITLE "Taky Jsem Se Narodil Bos"
    PERFORMER "Olympic"
    REM COMPOSER "Petr Janda, Zdenek Borovec"
    INDEX 00 27:10:40
    INDEX 01 27:12:63
  TRACK 07 AUDIO
    TITLE "Nech To Byt"
    PERFORMER "Olympic"
    REM COMPOSER "Petr Janda, Zdenek Borovec"
    INDEX 00 31:28:53
    INDEX 01 31:30:63
  TRACK 08 AUDIO
    TITLE "Tak Jedem Dal"
    PERFORMER "Olympic"
    REM COMPOSER "Petr Janda, Zdenek Borovec"
    INDEX 00 34:44:43
    INDEX 01 34:46:65
Правила, инструкции, FAQ!!!
Торрент  Добавлен [15 май 2020, 16:38] Скачать торрент Магнет ссылка
Скачать торрент
[ Размер 20.02 КБ / Просмотров 1 ]

Статус
Проверен 
 
Размер  243.68 МБ
Приватный: Нет (DHT включён)
.torrent скачан  0
 


     Отправить личное сообщение
   
Страница 1 из 1
Показать сообщения за:  Поле сортировки  
Начать новую тему Ответить на тему


Сейчас этот форум просматривают: нет зарегистрированных пользователей и гости: 0


Вы не можете начинать темы
Вы не можете отвечать на сообщения
Вы не можете редактировать свои сообщения
Вы не можете удалять свои сообщения
Вы не можете добавлять вложения

Перейти:  
cron