Начать новую тему Ответить на тему
Статистика раздачи
Размер: 218.49 МБ | Добавлен: 20 июл 2020, 17:48 | Скачали: 0
Сидеров: 0  [0 байт/сек]    Личеров: 0  [0 байт/сек]
Пред. тема | След. тема 

Автор
Сообщение

СообщениеДобавлено: 20 июл 2020, 17:48 

Ответить с цитатой 

Olympic / Laboratoř
Жанр: Pop Rock
Носитель: CD
Страна-производитель диска (релиза): Czechoslovakia
Год издания: 1984 (1992)
Издатель (лейбл): Supraphon
Номер по каталогу: 10 3443-2 311
Страна исполнителя (группы): Czechia
Аудиокодек: FLAC (*.flac)
Тип рипа: image+.cue
Продолжительность: 36:34
Источник: собственный рип
Наличие сканов в содержимом раздачи: да
Треклист:
1 Laboratoř 4:48
2 Pohlazení Skoro Jako Láska 3:50
3 Kartotéka 4:34
4 Noční Služba 2:19
5 Roboti Už Jdou 2:13
6 Kyvadlo Času 3:34
7 Co S Tím? 3:13
8 Podivín 5:38
9 Hodná Holka 2:11
10 Neučte Roboty 4:13
Код:
Exact Audio Copy V1.3 from 2. September 2016
Отчёт EAC об извлечении, выполненном 19. июля 2020, 21:58
Olympic / 1992. Laboratoř (Supraphon, Czechoslovakia, 10 3443-2 311)
Дисковод: ASUS    BW-16D1HT   Adapter: 0  ID: 0
Режим чтения                 : Достоверность
Использование точного потока : Да
Отключение кэша аудио        : Да
Использование указателей C2  : Нет
Коррекция смещения при чтении                     : 6
Способность читать области Lead-in и Lead-out     : Нет
Заполнение пропущенных сэмплов тишиной            : Да
Удаление блоков с тишиной в начале и конце        : Нет
При вычислениях CRC использовались нулевые сэмплы : Да
Интерфейс                                         : Установленный внешний ASPI-интерфейс
Выходной формат          : Пользовательский кодировщик
Выбранный битрейт        : 128 kBit/s
Качество                 : Высокий
Добавление ID3-тега      : Нет
Утилита сжатия           : C:\Program Files (x86)\Exact Audio Copy\Flac\flac.exe
Дополнительные параметры : -V -8 -T "Date=%year%" -T "Genre=%genre%" %source%
TOC извлечённого CD
     Трек |   Старт  | Длительность | Начальный сектор | Конечный сектор
    ---------------------------------------------------------------------
       1  |  0:00.33 |    4:48.60   |          33      |      21692
       2  |  4:49.18 |    3:49.50   |       21693      |      38917
       3  |  8:38.68 |    4:34.22   |       38918      |      59489
       4  | 13:13.15 |    2:18.45   |       59490      |      69884
       5  | 15:31.60 |    2:13.40   |       69885      |      79899
       6  | 17:45.25 |    3:33.60   |       79900      |      95934
       7  | 21:19.10 |    3:12.25   |       95935      |     110359
       8  | 24:31.35 |    5:38.73   |      110360      |     135782
       9  | 30:10.33 |    2:10.70   |      135783      |     145602
      10  | 32:21.28 |    4:13.20   |      145603      |     164597
Характеристики диапазона извлечения и сообщения об ошибках
Выбранный диапазон
     Имя файла F:\02.Olympic\15.Laboratoř [Full-Length] (1984)\1992. Laboratoř (Supraphon, Czechoslovakia, 10 3443-2 311) 1st Press\Flac\Olympic - 1992. Laboratoř (Supraphon, Czechoslovakia, 10 3443-2 311).wav
     Пиковый уровень 99.9 %
     Скорость извлечения 3.0 X
     Качество диапазона 100.0 %
     CRC теста B3364AA3
     CRC копии B3364AA3
     Копирование... OK
Ошибок не произошло
AccurateRip: сводка
Трек  1  отсутствует в базе данных
Трек  2  отсутствует в базе данных
Трек  3  отсутствует в базе данных
Трек  4  отсутствует в базе данных
Трек  5  отсутствует в базе данных
Трек  6  отсутствует в базе данных
Трек  7  отсутствует в базе данных
Трек  8  отсутствует в базе данных
Трек  9  отсутствует в базе данных
Трек 10  отсутствует в базе данных
Ни одного трека нет в базе AccurateRip
Конец отчёта
==== Контрольная сумма отчёта 579EA6718D7D939C8E35684CCAEED69F3C8069513AAA720EBB93440D39BE925D ====
Код:
REM GENRE "Pop Rock"
REM DATE 1984
REM DISCID 7F08920A
REM COMMENT "ExactAudioCopy v1.3"
PERFORMER "Olympic"
TITLE "1992. Laborator (Supraphon, Czechoslovakia, 10 3443-2 311)"
REM COMPOSER ""
FILE "Olympic - 1992. Laborator (Supraphon, Czechoslovakia, 10 3443-2 311).flac" WAVE
  TRACK 01 AUDIO
    TITLE "Laborator"
    PERFORMER "Olympic"
    REM COMPOSER "Petr Janda, Zdenek Rytir"
    INDEX 00 00:00:00
    INDEX 01 00:00:33
  TRACK 02 AUDIO
    TITLE "Pohlazeni Skoro Jako Laska"
    PERFORMER "Olympic"
    REM COMPOSER "Petr Janda, Zdenek Rytir"
    INDEX 01 04:49:18
  TRACK 03 AUDIO
    TITLE "Kartoteka"
    PERFORMER "Olympic"
    REM COMPOSER "Petr Janda, Zdenek Rytir"
    INDEX 01 08:38:68
  TRACK 04 AUDIO
    TITLE "Nocni Sluzba"
    PERFORMER "Olympic"
    REM COMPOSER "Petr Janda, Zdenek Rytir"
    INDEX 01 13:13:15
  TRACK 05 AUDIO
    TITLE "Roboti Uz Jdou"
    PERFORMER "Olympic"
    REM COMPOSER "Petr Janda, Zdenek Rytir"
    INDEX 01 15:31:60
  TRACK 06 AUDIO
    TITLE "Kyvadlo Casu"
    PERFORMER "Olympic"
    REM COMPOSER "Petr Janda, Zdenek Rytir"
    INDEX 01 17:45:25
  TRACK 07 AUDIO
    TITLE "Co S Tim?"
    PERFORMER "Olympic"
    REM COMPOSER "Petr Janda, Zdenek Rytir"
    INDEX 01 21:19:10
  TRACK 08 AUDIO
    TITLE "Podivin"
    PERFORMER "Olympic"
    REM COMPOSER "Petr Janda, Zdenek Rytir"
    INDEX 01 24:31:35
  TRACK 09 AUDIO
    TITLE "Hodna Holka"
    PERFORMER "Olympic"
    REM COMPOSER "Petr Janda, Zdenek Rytir"
    INDEX 01 30:10:33
  TRACK 10 AUDIO
    TITLE "Neucte Roboty"
    PERFORMER "Olympic"
    REM COMPOSER "Petr Janda, Zdenek Rytir"
    INDEX 01 32:21:28
Правила, инструкции, FAQ!!!
Торрент  Добавлен [20 июл 2020, 17:48] Скачать торрент Магнет ссылка
Скачать торрент
[ Размер 18.05 КБ / Просмотров 3 ]

Статус
Проверен 
 
Размер  218.49 МБ
Приватный: Нет (DHT включён)
.torrent скачан  0
 


     Отправить личное сообщение
   
Страница 1 из 1
Показать сообщения за:  Поле сортировки  
Начать новую тему Ответить на тему


Сейчас этот форум просматривают: нет зарегистрированных пользователей и гости: 0


Вы не можете начинать темы
Вы не можете отвечать на сообщения
Вы не можете редактировать свои сообщения
Вы не можете удалять свои сообщения
Вы не можете добавлять вложения

Перейти:  
cron