Начать новую тему Ответить на тему
Статистика раздачи
Размер: 250 МБ | Добавлен: 02 авг 2020, 20:40 | Скачали: 0
Сидеров: 0  [0 байт/сек]    Личеров: 0  [0 байт/сек]
Пред. тема | След. тема 

Автор
Сообщение

СообщениеДобавлено: 02 авг 2020, 20:40 

Ответить с цитатой 

Olympic / Jedeme Jedeme 3
Жанр: Pop Rock
Носитель: CD
Страна-производитель диска (релиза): Czechoslovakia
Год издания: 1971 (1992)
Издатель (лейбл): Supraphon
Номер по каталогу: 10 0994-2 311
Страна исполнителя (группы): Czechia
Аудиокодек: FLAC (*.flac)
Тип рипа: image+.cue
Продолжительность: 40:06
Источник: собственный рип
Наличие сканов в содержимом раздачи: да
Треклист:
1 Pět Cestujících 5:19
2 Když Jsem Bejval Tramp 2:04
3 Mr. Den A Lady Noc 3:16
4 Brouk 4:07
5 Danny 6:02
6 Elixír 3:11
7 Bláznivej Kiki 3:31
8 Bon Soir Mademoiselle Paris 3:45
9 Strážce Majáku 3:21
10 Tobogán 4:49
Код:
Exact Audio Copy V1.3 from 2. September 2016
Отчёт EAC об извлечении, выполненном 14. апреля 2020, 20:23
Olympic / 1992. Jedeme jedeme 3 (Supraphon, Czechoslovakia, 10 0994 - 2 311)
Дисковод: ASUS    BW-16D1HT   Adapter: 0  ID: 0
Режим чтения                 : Достоверность
Использование точного потока : Да
Отключение кэша аудио        : Да
Использование указателей C2  : Нет
Коррекция смещения при чтении                     : 6
Способность читать области Lead-in и Lead-out     : Нет
Заполнение пропущенных сэмплов тишиной            : Да
Удаление блоков с тишиной в начале и конце        : Нет
При вычислениях CRC использовались нулевые сэмплы : Да
Интерфейс                                         : Установленный внешний ASPI-интерфейс
Выходной формат          : Пользовательский кодировщик
Выбранный битрейт        : 128 kBit/s
Качество                 : Высокий
Добавление ID3-тега      : Нет
Утилита сжатия           : C:\Program Files (x86)\Exact Audio Copy\Flac\flac.exe
Дополнительные параметры : -V -8 -T "Date=%year%" -T "Genre=%genre%" %source%
TOC извлечённого CD
     Трек |   Старт  | Длительность | Начальный сектор | Конечный сектор
    ---------------------------------------------------------------------
       1  |  0:00.33 |    5:24.55   |          33      |      24387
       2  |  5:25.13 |    2:07.67   |       24388      |      33979
       3  |  7:33.05 |    3:19.53   |       33980      |      48957
       4  | 10:52.58 |    4:12.15   |       48958      |      67872
       5  | 15:04.73 |    6:06.60   |       67873      |      95382
       6  | 21:11.58 |    3:15.55   |       95383      |     110062
       7  | 24:27.38 |    3:35.00   |      110063      |     126187
       8  | 28:02.38 |    3:48.65   |      126188      |     143352
       9  | 31:51.28 |    3:24.55   |      143353      |     158707
      10  | 35:16.08 |    4:49.72   |      158708      |     180454
Характеристики диапазона извлечения и сообщения об ошибках
Выбранный диапазон
     Имя файла F:\02.Olympic\03.Jedeme Jedeme 3 [Full-Length] (1971)\1992. Jedeme jedeme 3 (Supraphon, Czechoslovakia, 10 0994 - 2 311) 1st Press\Flac\Olympic - 1992. Jedeme jedeme 3 (Supraphon, Czechoslovakia, 10 0994 - 2 311).wav
     Пиковый уровень 88.9 %
     Скорость извлечения 6.8 X
     Качество диапазона 100.0 %
     CRC теста 39C2DBF3
     CRC копии 39C2DBF3
     Копирование... OK
Ошибок не произошло
AccurateRip: сводка
Трек  1  : извлечено точно (доверие 2)  [4BA587DA]  (AR v2)
Трек  2  : извлечено точно (доверие 2)  [AD134EED]  (AR v2)
Трек  3  : извлечено точно (доверие 2)  [6F0DC7A2]  (AR v2)
Трек  4  : извлечено точно (доверие 2)  [37C2FE7A]  (AR v2)
Трек  5  : извлечено точно (доверие 2)  [3F54342B]  (AR v2)
Трек  6  : извлечено точно (доверие 2)  [D975B46E]  (AR v2)
Трек  7  : извлечено точно (доверие 2)  [5F191125]  (AR v2)
Трек  8  : извлечено точно (доверие 2)  [4D405A15]  (AR v2)
Трек  9  : извлечено точно (доверие 2)  [11C872E8]  (AR v2)
Трек 10  : извлечено точно (доверие 2)  [3289C41E]  (AR v2)
Все треки извлечены точно
Конец отчёта
==== Контрольная сумма отчёта A1DE31DF1F2BDC008F470EE50983525CDF1B3A3F7CC0EF6A17A6C3C030513B23 ====
Код:
REM GENRE "Pop Rock"
REM DATE 1971
REM DISCID 8809660A
REM COMMENT "ExactAudioCopy v1.3"
PERFORMER "Olympic"
TITLE "1992. Jedeme Jedeme 3 (Supraphon, Czechoslovakia, 10 0994 - 2 311)"
REM COMPOSER ""
FILE "Olympic - 1992. Jedeme Jedeme 3 (Supraphon, Czechoslovakia, 10 0994 - 2 311).flac" WAVE
  TRACK 01 AUDIO
    TITLE "Pet Cestujicich"
    PERFORMER "Olympic"
    REM COMPOSER "Petr Janda, Otakar Petrina, Zd. Rytir"
    INDEX 00 00:00:00
    INDEX 01 00:00:33
  TRACK 02 AUDIO
    TITLE "Kdyz Jsem Bejval Tramp"
    PERFORMER "Olympic"
    REM COMPOSER "Petr Janda, Ed. Krecmar"
    INDEX 00 05:20:60
    INDEX 01 05:25:13
  TRACK 03 AUDIO
    TITLE "Mr. Den A Lady Noc"
    PERFORMER "Olympic"
    REM COMPOSER "Petr Janda, Otakar Petrina, Zd. Rytir"
    INDEX 00 07:29:40
    INDEX 01 07:33:05
  TRACK 04 AUDIO
    TITLE "Brouk"
    PERFORMER "Olympic"
    REM COMPOSER "Petr Janda, Otakar Petrina, Ed. Krecmar"
    INDEX 00 10:49:73
    INDEX 01 10:52:58
  TRACK 05 AUDIO
    TITLE "Danny"
    PERFORMER "Olympic"
    REM COMPOSER "Petr Janda, Ed. Krecmar"
    INDEX 00 15:01:08
    INDEX 01 15:04:73
  TRACK 06 AUDIO
    TITLE "Elixir"
    PERFORMER "Olympic"
    REM COMPOSER "Petr Janda, Otakar Petrina, Zd. Rytir"
    INDEX 00 21:07:55
    INDEX 01 21:11:58
  TRACK 07 AUDIO
    TITLE "Blaznivej Kiki"
    PERFORMER "Olympic"
    REM COMPOSER "Petr Janda, Ed. Krecmar"
    INDEX 00 24:24:05
    INDEX 01 24:27:38
  TRACK 08 AUDIO
    TITLE "Bon Soir Mademoiselle Paris"
    PERFORMER "Olympic"
    REM COMPOSER "Petr Janda, Otakar Petrina, Zd. Rytir"
    INDEX 00 27:58:48
    INDEX 01 28:02:38
  TRACK 09 AUDIO
    TITLE "Strazce Majaku"
    PERFORMER "Olympic"
    REM COMPOSER "Petr Janda, Ed. Krecmar"
    INDEX 00 31:47:73
    INDEX 01 31:51:28
  TRACK 10 AUDIO
    TITLE "Tobogan"
    PERFORMER "Olympic"
    REM COMPOSER "Petr Janda, Ed. Krecmar"
    INDEX 00 35:12:33
    INDEX 01 35:16:08
Правила, инструкции, FAQ!!!
Торрент  Добавлен [02 авг 2020, 20:40] Скачать торрент Магнет ссылка
Скачать торрент
[ Размер 20.57 КБ / Просмотров 0 ]

Статус
Проверен 
 
Размер  250 МБ
Приватный: Нет (DHT включён)
.torrent скачан  0
 


     Отправить личное сообщение
   
Страница 1 из 1
Показать сообщения за:  Поле сортировки  
Начать новую тему Ответить на тему


Сейчас этот форум просматривают: нет зарегистрированных пользователей и гости: 0


Вы не можете начинать темы
Вы не можете отвечать на сообщения
Вы не можете редактировать свои сообщения
Вы не можете удалять свои сообщения
Вы не можете добавлять вложения

Перейти:  
cron