Начать новую тему Ответить на тему
Статистика раздачи
Размер: 211.43 МБ | Добавлен: 26 мар 2019, 19:27 | Скачали: 0
Сидеров: 0  [0 байт/сек]    Личеров: 0  [0 байт/сек]
Пред. тема | След. тема 

Автор
Сообщение

СообщениеДобавлено: 26 мар 2019, 19:27 

Ответить с цитатой 

Nuance / Vivre Dans La Nuit
Жанр: Pop/Rock
Носитель: CD
Страна-производитель диска (релиза): Canada
Год издания: 1986
Издатель (лейбл): ISBA
Номер по каталогу: ISCD-2007
Страна исполнителя (группы): Canada
Аудиокодек: FLAC (*.flac)
Тип рипа: tracks+.cue
Битрейт аудио: lossless
Продолжительность: 00:31:39
Источник (релизер): ORCH51
Наличие сканов в содержимом раздачи: Front/Back/Inside

Треклист:
01. Libre
02. Vivre Dans La Nuit
03. Rêveur
04. Comme Une Chatte
05. Amour Sans Romance
06. Sans Être Aimée
07. Jusqu'au Bout
08. Tu Me R'pogneras Pas
Код:
Exact Audio Copy V1.3 from 2. September 2016
EAC extraction logfile from 16. February 2017, 5:19
Nuance / Vivre dans la nuit
Used drive  : TSSTcorpCDDVDW SH-224DB   Adapter: 1  ID: 0
Read mode               : Secure
Utilize accurate stream : Yes
Defeat audio cache      : Yes
Make use of C2 pointers : No
Read offset correction                      : 6
Overread into Lead-In and Lead-Out          : No
Fill up missing offset samples with silence : Yes
Delete leading and trailing silent blocks   : No
Null samples used in CRC calculations       : Yes
Used interface                              : Native Win32 interface for Win NT & 2000
Gap handling                                : Appended to previous track
Used output format              : User Defined Encoder
Selected bitrate                : 1024 kBit/s
Quality                         : High
Add ID3 tag                     : No
Command line compressor         : C:\Program Files (x86)\Exact Audio Copy\Flac\flac.exe
Additional command line options : -8 -e -p -V -T "ARTIST=%artist%" -T "TITLE=%title%" -T "ALBUM=%albumtitle%" -T "DATE=%year%" -T "TRACKNUMBER=%tracknr%" -T "GENRE=%genre%" -T "PERFORMER=%albuminterpret%" -T "COMPOSER=%composer%" %haslyrics%--tag-from-file=LYRICS="%lyricsfile%"%haslyrics% -T "ALBUMARTIST=%albumartist%" -T "DISCNUMBER=%cdnumber%" -T "TOTALDISCS=%totalcds%" -T "TOTALTRACKS=%numtracks%" -T "COMMENT=%comment%" %source% -o %dest%
TOC of the extracted CD
     Track |   Start  |  Length  | Start sector | End sector
    ---------------------------------------------------------
        1  |  0:00.00 |  3:38.37 |         0    |    16386
        2  |  3:38.37 |  4:45.28 |     16387    |    37789
        3  |  8:23.65 |  3:42.57 |     37790    |    54496
        4  | 12:06.47 |  3:13.53 |     54497    |    69024
        5  | 15:20.25 |  3:56.12 |     69025    |    86736
        6  | 19:16.37 |  4:05.28 |     86737    |   105139
        7  | 23:21.65 |  5:09.27 |    105140    |   128341
        8  | 28:31.17 |  3:17.08 |    128342    |   143124
Track  1
     Filename D:\Rips\Nuance - Vivre Dans La Nuit (1986) [CD FLAC]\01 Libre.wav
     Pre-gap length  0:00:02.00
     Peak level 55.1 %
     Extraction speed 1.8 X
     Track quality 100.0 %
     Test CRC 2D41F83A
     Copy CRC 2D41F83A
     Track not present in AccurateRip database
     Copy OK
Track  2
     Filename D:\Rips\Nuance - Vivre Dans La Nuit (1986) [CD FLAC]\02 Vivre dans la nuit.wav
     Pre-gap length  0:00:01.33
     Peak level 56.5 %
     Extraction speed 2.0 X
     Track quality 100.0 %
     Test CRC 1BB43AB7
     Copy CRC 1BB43AB7
     Track not present in AccurateRip database
     Copy OK
Track  3
     Filename D:\Rips\Nuance - Vivre Dans La Nuit (1986) [CD FLAC]\03 Rêveur.wav
     Pre-gap length  0:00:01.33
     Peak level 58.3 %
     Extraction speed 1.8 X
     Track quality 99.9 %
     Test CRC E4A167EF
     Copy CRC E4A167EF
     Track not present in AccurateRip database
     Copy OK
Track  4
     Filename D:\Rips\Nuance - Vivre Dans La Nuit (1986) [CD FLAC]\04 Comme une chatte.wav
     Pre-gap length  0:00:01.33
     Peak level 67.9 %
     Extraction speed 2.2 X
     Track quality 100.0 %
     Test CRC E80A3396
     Copy CRC E80A3396
     Track not present in AccurateRip database
     Copy OK
Track  5
     Filename D:\Rips\Nuance - Vivre Dans La Nuit (1986) [CD FLAC]\05 Amour sans romance.wav
     Pre-gap length  0:00:02.00
     Peak level 62.9 %
     Extraction speed 2.4 X
     Track quality 100.0 %
     Test CRC 727D7170
     Copy CRC 727D7170
     Track not present in AccurateRip database
     Copy OK
Track  6
     Filename D:\Rips\Nuance - Vivre Dans La Nuit (1986) [CD FLAC]\06 Sans être aimée.wav
     Pre-gap length  0:00:01.33
     Peak level 58.9 %
     Extraction speed 2.1 X
     Track quality 99.9 %
     Test CRC D76247BC
     Copy CRC D76247BC
     Track not present in AccurateRip database
     Copy OK
Track  7
     Filename D:\Rips\Nuance - Vivre Dans La Nuit (1986) [CD FLAC]\07 Jusqu'au bout.wav
     Pre-gap length  0:00:01.33
     Peak level 84.6 %
     Extraction speed 2.8 X
     Track quality 100.0 %
     Test CRC 30C5D14C
     Copy CRC 30C5D14C
     Track not present in AccurateRip database
     Copy OK
Track  8
     Filename D:\Rips\Nuance - Vivre Dans La Nuit (1986) [CD FLAC]\08 Tu me r'pogneras pas.wav
     Pre-gap length  0:00:01.16
     Peak level 64.5 %
     Extraction speed 2.8 X
     Track quality 100.0 %
     Test CRC AF1837E0
     Copy CRC AF1837E0
     Track not present in AccurateRip database
     Copy OK
None of the tracks are present in the AccurateRip database
No errors occurred
End of status report
---- CUETools DB Plugin V2.1.6
[CTDB TOCID: ygyo95U_4rBGgIusoxejWZV8nTI-] found
Submit result: ygyo95U_4rBGgIusoxejWZV8nTI- has been uploaded
Track | CTDB Status
  1   | (1/1) Accurately ripped
  2   | (1/1) Accurately ripped
  3   | (1/1) Accurately ripped
  4   | (1/1) Accurately ripped
  5   | (1/1) Accurately ripped
  6   | (1/1) Accurately ripped
  7   | (1/1) Accurately ripped
  8   | (1/1) Differs in 2 samples @03:16:69
If you are sure that your rip contains errors, you can use CUETools to repair it.
==== Log checksum 4257965AD4467091FFA515EFDC6C92CC1A54243E03F890FAF19B7AB166BF4A68 ====
Код:
REM GENRE "Pop Rock"
REM DATE 1986
REM DISCID 51077408
REM COMMENT "ExactAudioCopy v1.3"
PERFORMER "Nuance"
TITLE "Vivre dans la nuit"
REM COMPOSER ""
FILE "01 Libre.wav" WAVE
  TRACK 01 AUDIO
    TITLE "Libre"
    PERFORMER "Nuance"
    REM COMPOSER ""
    INDEX 01 00:00:00
  TRACK 02 AUDIO
    TITLE "Vivre dans la nuit"
    PERFORMER "Nuance"
    REM COMPOSER ""
    INDEX 00 03:37:12
FILE "02 Vivre dans la nuit.wav" WAVE
    INDEX 01 00:00:00
  TRACK 03 AUDIO
    TITLE "Rêveur"
    PERFORMER "Nuance"
    REM COMPOSER ""
    INDEX 00 04:44:03
FILE "03 Rêveur.wav" WAVE
    INDEX 01 00:00:00
  TRACK 04 AUDIO
    TITLE "Comme une chatte"
    PERFORMER "Nuance"
    REM COMPOSER ""
    INDEX 00 03:41:32
FILE "04 Comme une chatte.wav" WAVE
    INDEX 01 00:00:00
  TRACK 05 AUDIO
    TITLE "Amour sans romance"
    PERFORMER "Nuance"
    REM COMPOSER ""
    INDEX 00 03:11:53
FILE "05 Amour sans romance.wav" WAVE
    INDEX 01 00:00:00
  TRACK 06 AUDIO
    TITLE "Sans être aimée"
    PERFORMER "Nuance"
    REM COMPOSER ""
    INDEX 00 03:54:62
FILE "06 Sans être aimée.wav" WAVE
    INDEX 01 00:00:00
  TRACK 07 AUDIO
    TITLE "Jusqu'au bout"
    PERFORMER "Nuance"
    REM COMPOSER ""
    INDEX 00 04:04:03
FILE "07 Jusqu'au bout.wav" WAVE
    INDEX 01 00:00:00
  TRACK 08 AUDIO
    TITLE "Tu me r'pogneras pas"
    PERFORMER "Nuance"
    REM COMPOSER ""
    INDEX 00 05:08:15
FILE "08 Tu me r'pogneras pas.wav" WAVE
    INDEX 01 00:00:00
Код:
[CUETools log; Date: 21.10.2017 20:01:03; Version: 2.1.5]
[CTDB TOCID: ygyo95U_4rBGgIusoxejWZV8nTI-] found.
Track | CTDB Status
  1   | (7/7) Accurately ripped
  2   | (7/7) Accurately ripped
  3   | (7/7) Accurately ripped
  4   | (7/7) Accurately ripped
  5   | (7/7) Accurately ripped
  6   | (7/7) Accurately ripped
  7   | (7/7) Accurately ripped
  8   | (4/7) Accurately ripped, or (3/7) differs in 2 samples @03:16:69
[AccurateRip ID: 0009c813-004150c9-51077408] found.
Track   [  CRC   |   V2   ] Status
 01     [e06a2d56|dde7b569] (0+0/2) No match
 02     [98a3ef33|dcf12732] (0+0/2) No match
 03     [da62b071|73ec9012] (0+0/2) No match
 04     [cb9984fd|8f86b544] (0+0/2) No match
 05     [e7eece07|e5b47f7b] (0+0/2) No match
 06     [4be69f3e|36c423e2] (0+0/2) No match
 07     [043a145c|525ce46c] (0+0/2) No match
 08     [23fb73ef|557cef07] (0+0/2) No match
Offsetted by 12:
 01     [8fb16492] (0/2) No match (V2 was not tested)
 02     [b7059932] (0/2) No match (V2 was not tested)
 03     [6643fae8] (0/2) No match (V2 was not tested)
 04     [de03de84] (0/2) No match (V2 was not tested)
 05     [527b9465] (0/2) No match (V2 was not tested)
 06     [c6b76e94] (0/2) No match (V2 was not tested)
 07     [ae366579] (0/2) No match (V2 was not tested)
 08     [e0eb9919] (0/2) No match (V2 was not tested)
Track Peak [ CRC32  ] [W/O NULL] [  LOG   ]
 --   84,6 [86F74CDC] [E3AAF345]
 01   55,1 [2D41F83A] [85138A32]   CRC32
 02   56,5 [1BB43AB7] [A9DCBECD]   CRC32
 03   58,3 [E4A167EF] [CFC0EDE6]   CRC32
 04   67,9 [E80A3396] [EF127B38]   CRC32
 05   62,9 [727D7170] [5B63FED1]   CRC32
 06   58,9 [D76247BC] [5F5FE0CE]   CRC32
 07   84,6 [30C5D14C] [29053E22]   CRC32
 08   64,5 [AF1837E0] [D4EFE43E]   CRC32
Правила, инструкции, FAQ!!!
Торрент  Добавлен [26 мар 2019, 19:27] Скачать торрент Магнет ссылка
Скачать торрент
[ Размер 17.78 КБ / Просмотров 3 ]

Статус
Проверен 
 
Размер  211.43 МБ
Приватный: Нет (DHT включён)
.torrent скачан  0
 


     Отправить личное сообщение
   
Страница 1 из 1
Показать сообщения за:  Поле сортировки  
Начать новую тему Ответить на тему


Сейчас этот форум просматривают: нет зарегистрированных пользователей и гости: 1


Вы не можете начинать темы
Вы не можете отвечать на сообщения
Вы не можете редактировать свои сообщения
Вы не можете удалять свои сообщения
Вы не можете добавлять вложения

Перейти:  
cron