Начать новую тему Ответить на тему
Статистика раздачи
Размер: 271.39 МБ | Добавлен: 26 мар 2019, 19:43 | Скачали: 0
Сидеров: 0  [0 байт/сек]    Личеров: 0  [0 байт/сек]
Пред. тема | След. тема 

Автор
Сообщение

СообщениеДобавлено: 26 мар 2019, 19:43 

Ответить с цитатой 

Novastar / Inside Outside
Жанр: pop-rock
Носитель: CD
Страна-производитель диска: Benelux
Год издания: 2014
Издатель (лейбл): Warner Music
Номер по каталогу: 0825646393435
Страна исполнителя (группы): Belgium
Аудиокодек: FLAC (*.flac)
Тип рипа: tracks+.cue
Битрейт аудио: lossless
Продолжительность: 00:40:29
Источник (релизер): yourservice
Наличие сканов в содержимом раздачи: нет
Треклист:
01. Closer To You (03:22)
02. Faith In You (03:37)
03. In Love With Another (04:06)
04. Kabul (03:12)
05. Inside Outside (04:22)
06. So Softly (03:43)
07. Tumulus Man (05:02)
08. Light Up My Life (03:06)
09. Fall Down (02:39)
10. Silvery Rain (03:42)
11. End To End (03:38)
Код:
Exact Audio Copy V1.0 beta 3 from 29. August 2011
EAC extraction logfile from 30. March 2014, 13:29
Novastar / Inside Outside
Used drive  : TSSTcorpCDDVDW SH-224DB   Adapter: 3  ID: 0
Read mode               : Secure
Utilize accurate stream : Yes
Defeat audio cache      : No
Make use of C2 pointers : Yes
Read offset correction                      : 6
Overread into Lead-In and Lead-Out          : No
Fill up missing offset samples with silence : Yes
Delete leading and trailing silent blocks   : No
Null samples used in CRC calculations       : Yes
Used interface                              : Installed external ASPI interface
Used output format : Internal WAV Routines
Sample format      : 44.100 Hz; 16 Bit; Stereo
TOC of the extracted CD
     Track |   Start  |  Length  | Start sector | End sector
    ---------------------------------------------------------
        1  |  0:00.00 |  3:21.60 |         0    |    15134
        2  |  3:21.60 |  3:36.62 |     15135    |    31396
        3  |  6:58.47 |  4:05.52 |     31397    |    49823
        4  | 11:04.24 |  3:12.08 |     49824    |    64231
        5  | 14:16.32 |  4:21.55 |     64232    |    83861
        6  | 18:38.12 |  3:42.31 |     83862    |   100542
        7  | 22:20.43 |  5:01.51 |    100543    |   123168
        8  | 27:22.19 |  3:06.02 |    123169    |   137120
        9  | 30:28.21 |  2:39.15 |    137121    |   149060
       10  | 33:07.36 |  3:41.55 |    149061    |   165690
       11  | 36:49.16 |  3:37.38 |    165691    |   182003
Range status and errors
Selected range
     Filename F:\POST 2\Novastar - Inside Outside (EAC)\Novastar - Inside Outside.wav
     Peak level 100.0 %
     Extraction speed 8.1 X
     Range quality 100.0 %
     Test CRC 86966B5B
     Copy CRC 86966B5B
     Copy OK
No errors occurred
End of status report
Код:
PERFORMER "Novastar"
TITLE "Inside Outside"
FILE "01 Closer To You.flac" WAVE
  TRACK 01 AUDIO
    TITLE "Closer To You"
    PERFORMER "Novastar"
    INDEX 01 00:00:00
FILE "02 Faith In You.flac" WAVE
  TRACK 02 AUDIO
    TITLE "Faith In You"
    PERFORMER "Novastar"
    INDEX 01 00:00:00
FILE "03 In Love With Another.flac" WAVE
  TRACK 03 AUDIO
    TITLE "In Love With Another"
    PERFORMER "Novastar"
    INDEX 01 00:00:00
FILE "04 Kabul.flac" WAVE
  TRACK 04 AUDIO
    TITLE "Kabul"
    PERFORMER "Novastar"
    INDEX 01 00:00:00
FILE "05 Inside Outside.flac" WAVE
  TRACK 05 AUDIO
    TITLE "Inside Outside"
    PERFORMER "Novastar"
    INDEX 01 00:00:00
FILE "06 So Softly.flac" WAVE
  TRACK 06 AUDIO
    TITLE "So Softly"
    PERFORMER "Novastar"
    INDEX 01 00:00:00
FILE "07 Tumulus Man.flac" WAVE
  TRACK 07 AUDIO
    TITLE "Tumulus Man"
    PERFORMER "Novastar"
    INDEX 01 00:00:00
FILE "08 Light Up My Life.flac" WAVE
  TRACK 08 AUDIO
    TITLE "Light Up My Life"
    PERFORMER "Novastar"
    INDEX 01 00:00:00
FILE "09 Fall Down.flac" WAVE
  TRACK 09 AUDIO
    TITLE "Fall Down"
    PERFORMER "Novastar"
    INDEX 01 00:00:00
FILE "10 Silvery Rain.flac" WAVE
  TRACK 10 AUDIO
    TITLE "Silvery Rain"
    PERFORMER "Novastar"
    INDEX 01 00:00:00
FILE "11 End To End.flac" WAVE
  TRACK 11 AUDIO
    TITLE "End To End"
    PERFORMER "Novastar"
    INDEX 01 00:00:00
Код:
AUDIOCHECKER v2.0 beta (build 457) - by Dester - opdester@freemail.hu
~~~~~~~~~~~~~~~~~~~~~~~~~~~~~~~~~~
Started at: вторник, 11. 11. 2014. - 19:29.26
11 files found
01 -===- C:\Users\dns\Desktop\rutracker.org\Novastar - Inside Outside (2014) [Flac]\01 Closer To You.flac
  Extracted successfully
  Conclusion: this track is CDDA with probability 100%
  Tempfile successfully deleted.
02 -===- C:\Users\dns\Desktop\rutracker.org\Novastar - Inside Outside (2014) [Flac]\02 Faith In You.flac
  Extracted successfully
  Conclusion: this track is CDDA with probability 100%
  Tempfile successfully deleted.
03 -===- C:\Users\dns\Desktop\rutracker.org\Novastar - Inside Outside (2014) [Flac]\03 In Love With Another.flac
  Extracted successfully
  Conclusion: this track is CDDA with probability 100%
  Tempfile successfully deleted.
04 -===- C:\Users\dns\Desktop\rutracker.org\Novastar - Inside Outside (2014) [Flac]\04 Kabul.flac
  Extracted successfully
  Conclusion: this track is CDDA with probability 100%
  Tempfile successfully deleted.
05 -===- C:\Users\dns\Desktop\rutracker.org\Novastar - Inside Outside (2014) [Flac]\05 Inside Outside.flac
  Extracted successfully
  Conclusion: this track is CDDA with probability 100%
  Tempfile successfully deleted.
06 -===- C:\Users\dns\Desktop\rutracker.org\Novastar - Inside Outside (2014) [Flac]\06 So Softly.flac
  Extracted successfully
  Conclusion: this track is CDDA with probability 100%
  Tempfile successfully deleted.
07 -===- C:\Users\dns\Desktop\rutracker.org\Novastar - Inside Outside (2014) [Flac]\07 Tumulus Man.flac
  Extracted successfully
  Conclusion: this track is CDDA with probability 100%
  Tempfile successfully deleted.
08 -===- C:\Users\dns\Desktop\rutracker.org\Novastar - Inside Outside (2014) [Flac]\08 Light Up My Life.flac
  Extracted successfully
  Conclusion: this track is CDDA with probability 100%
  Tempfile successfully deleted.
09 -===- C:\Users\dns\Desktop\rutracker.org\Novastar - Inside Outside (2014) [Flac]\09 Fall Down.flac
  Extracted successfully
  Conclusion: this track is CDDA with probability 100%
  Tempfile successfully deleted.
10 -===- C:\Users\dns\Desktop\rutracker.org\Novastar - Inside Outside (2014) [Flac]\10 Silvery Rain.flac
  Extracted successfully
  Conclusion: this track is CDDA with probability 100%
  Tempfile successfully deleted.
11 -===- C:\Users\dns\Desktop\rutracker.org\Novastar - Inside Outside (2014) [Flac]\11 End To End.flac
  Extracted successfully
  Conclusion: this track is CDDA with probability 100%
  Tempfile successfully deleted.
Finished at: вторник, 11. 11. 2014. - 19:31.26 (operation time: 0:01.59)
Правила, инструкции, FAQ!!!
Торрент  Добавлен [26 мар 2019, 19:43] Скачать торрент Магнет ссылка
Скачать торрент
[ Размер 11.87 КБ / Просмотров 0 ]

Статус
Проверен 
 
Размер  271.39 МБ
Приватный: Нет (DHT включён)
.torrent скачан  0
 


     Отправить личное сообщение
   
Страница 1 из 1
Показать сообщения за:  Поле сортировки  
Начать новую тему Ответить на тему


Сейчас этот форум просматривают: нет зарегистрированных пользователей и гости: 0


Вы не можете начинать темы
Вы не можете отвечать на сообщения
Вы не можете редактировать свои сообщения
Вы не можете удалять свои сообщения
Вы не можете добавлять вложения

Перейти:  
cron