Начать новую тему Ответить на тему
Статистика раздачи
Размер: 132.07 МБ | Добавлен: 26 мар 2019, 20:47 | Скачали: 0
Сидеров: 3  [0 байт/сек]    Личеров: 1  [0 байт/сек]
Пред. тема | След. тема 

Автор
Сообщение

СообщениеДобавлено: 26 мар 2019, 20:47 

Ответить с цитатой 

Nino Ferrer - Les 8 Premieres Chansons
Жанр: Pop-Rock
Дата записи: 1963-64
Производитель диска: Barclay
Аудио кодек: FLAC
Тип рипа: image+.cue
Битрейт аудио: lossless
Продолжительность: 21:29
Трэклист:
01. Pour oublier qu'on s'est aime
02. Souviens-toi
03. C'est irreparable (Un an d'amour)
04. Cinq bougies bleues
05. Ferme la porte
06. Je reviendrai
07. Oh Ne t'en vas pas
08. Ce que tu as fait de moi
Код:
Exact Audio Copy V0.99 prebeta 5 from 4. May 2009
Отчёт EAC об извлечении, выполненном 27. января 2001, 17:03
Nino Ferrer / (Cd 12-12)
Дисковод: TSSTcorpCDDVDW SH-S202H   Adapter: 0  ID: 0
Режим чтения                 : Достоверность
Использование точного потока : Да
Отключение кэша аудио        : Да
Использование указателей C2  : Нет
Коррекция смещения при чтении                     : 6
Способность читать области Lead-in и Lead-out     : Нет
Заполнение пропущенных сэмплов тишиной            : Да
Удаление блоков с тишиной в начале и конце        : Нет
При вычислениях CRC использовались нулевые сэмплы : Да
Интерфейс                                         : Встроенный Win32-интерфейс для Win NT/2000
Выходной формат          : Пользовательский кодировщик
Выбранный битрейт        : 1024 kBit/s
Качество                 : Высокий
Добавление ID3-тэга      : Нет
Утилита сжатия           : C:\Program Files\Exact Audio Copy\Flac\flac.exe
Дополнительные параметры : -8 -V -T "ARTIST=%a" -T "TITLE=%t" -T "ALBUM=%g" -T "DATE=%y" -T "TRACKNUMBER=%n" -T "GENRE=%m" -T "COMMENT=EAC FLAC -8" %s
TOC извлечённого CD
     Трек |   Старт  | Длительность | Начальный сектор | Конечный сектор
    ---------------------------------------------------------------------
       1  |  0:00.00 |    2:06.09   |           0      |       9458
       2  |  2:06.09 |    2:34.36   |        9459      |      21044
       3  |  4:40.45 |    3:06.17   |       21045      |      35011
       4  |  7:46.62 |    2:08.39   |       35012      |      44650
       5  |  9:55.26 |    2:49.05   |       44651      |      57330
       6  | 12:44.31 |    2:56.00   |       57331      |      70530
       7  | 15:40.31 |    2:41.62   |       70531      |      82667
       8  | 18:22.18 |    3:06.22   |       82668      |      96639
Характеристики диапазона извлечения и сообщения об ошибках
Выбранный диапазон
     Имя файла C:\Users\Администратор\Desktop\папа\Nino Ferrer\Nino Ferrer - (Cd 12-12).wav
     Пиковый уровень 100.0 %
     Качество диапазона 100.0 %
     CRC теста 2D647A41
     CRC копии 2D647A41
     Копирование... OK
Ошибок не произошло
AccurateRip: сводка
Трек  1  нет в базе данных
Трек  2  нет в базе данных
Трек  3  нет в базе данных
Трек  4  нет в базе данных
Трек  5  нет в базе данных
Трек  6  нет в базе данных
Трек  7  нет в базе данных
Трек  8  нет в базе данных
Ни одного трека нет в базе AccurateRip
Конец отчёта
Правила, инструкции, FAQ!!!
Торрент  Добавлен [26 мар 2019, 20:47] Скачать торрент Магнет ссылка
Скачать торрент
[ Размер 11.11 КБ / Просмотров 4 ]

Статус
Проверен 
 
Размер  132.07 МБ
Приватный: Нет (DHT включён)
.torrent скачан  0
 


     Отправить личное сообщение
   
Страница 1 из 1
Показать сообщения за:  Поле сортировки  
Начать новую тему Ответить на тему


Сейчас этот форум просматривают: нет зарегистрированных пользователей и гости: 0


Вы не можете начинать темы
Вы не можете отвечать на сообщения
Вы не можете редактировать свои сообщения
Вы не можете удалять свои сообщения
Вы не можете добавлять вложения

Перейти:  
cron