Начать новую тему Ответить на тему
Статистика раздачи
Размер: 266.3 МБ | Добавлен: 26 мар 2019, 21:07 | Скачали: 2
Сидеров: 2  [0 байт/сек]    Личеров: 0  [0 байт/сек]
Пред. тема | След. тема 

Автор
Сообщение

СообщениеДобавлено: 26 мар 2019, 21:07 

Ответить с цитатой 

Niagara - Religion
Жанр: Pop/Rock
Год выпуска: 1990
Формат: FLAC (image + .cue)
Битрейт аудио: lossless
Трэклист:
01. Le Ciel S’Est Dechire 04:11
02. J’Ai Vu 03:52
03. Chemin De Croix 04:35
04. Pendant Que Les Champs Brulent 04:01
05. Au-Dela De La Riviere 03:25
06. Chien Rouge 03:52
07. Psychotrope 03:20
08. La Vie Est Peut-Etre Belle 03:26
09. L’Ame Des Vandales 03:55
10. Pardon A Mes Ennemis 03:34
11. La vie est un serpent au coeur froid 02:59
Exact Audio Copy V0.99 prebeta 1 from 25. May 2007
Отчёт EAC об извлечении, выполненном 3. марта 2008, 17:16
Niagara / Religion
Дисковод: PIONEER DVD-RW DVR-112 Adapter: 1 ID: 0
Режим чтения : Достоверность
Использование точного потока : Да
Отключение кэша аудио : Да
Использование указателей C2 : Нет
Коррекция смещения при чтении : 48
Способность читать области Lead-in и Lead-out : Нет
Заполнение пропущенных сэмплов тишиной : Да
Удаление блоков с тишиной в начале и конце : Нет
Интерфейс : Установленный внешний ASPI-интерфейс
Выходной формат : Внутренние WAV-операции
Формат сэмплов : 44.100 Гц; 16 бит; стерео
TOC извлечённого CD
Трек | Старт | Длительность | Начальный сектор | Конечный сектор
---------------------------------------------------------------------
1 | 0:00.00 | 4:11.30 | 0 | 18854
2 | 4:11.30 | 3:52.25 | 18855 | 36279
3 | 8:03.55 | 4:35.65 | 36280 | 56969
4 | 12:39.45 | 4:01.50 | 56970 | 75094
5 | 16:41.20 | 3:25.12 | 75095 | 90481
6 | 20:06.32 | 3:52.35 | 90482 | 107916
7 | 23:58.67 | 3:20.13 | 107917 | 122929
8 | 27:19.05 | 3:26.62 | 122930 | 138441
9 | 30:45.67 | 3:55.58 | 138442 | 156124
10 | 34:41.50 | 3:34.52 | 156125 | 172226
11 | 38:16.27 | 2:59.23 | 172227 | 185674
Характеристики диапазона извлечения и сообщения об ошибках
Выбранный диапазон
Имя файла R:\M U S I C\LOSSLES NO\Niagara\Religion\Niagara - Religion.wav
Пиковый уровень 100.0 %
Качество диапазона 99.9 %
CRC копии 25E3C4AA
Копирование... OK
Ошибок не произошло
Конец отчёта

Лучший альбом очень хорошей французской группы.
Французская группа-дуэт Niagara была создана в начале восьмидесятых годов, двумя музыкантами Muriel Moreno и Daniel Chenevez. Muriel Moreno и Daniel Chenevez начали свою совместную работу в 1982 году и тем самым создали группу Niagara. На ее счету пятнадцать синглов, четыре альбома и два с половиной миллионов проданных дисков, а также такие тюбы как: Tchiki Boum, L’amour `a la Plage (Любовь на берегу), J’ai Vu (Я увидел), Pendant Que Les Champs Brulent…(В то время как пылают поля). Спустя одиннадцать лет в 1993 году группа «Niagara» прекращает свое существование. Источник биографии:www.specialradio.ru
Правила, инструкции, FAQ!!!
Торрент  Добавлен [26 мар 2019, 21:07] Скачать торрент Магнет ссылка
Скачать торрент
[ Размер 21.47 КБ / Просмотров 47 ]

Статус
Проверен 
 
Размер  266.3 МБ
Приватный: Нет (DHT включён)
.torrent скачан  2
 


     Отправить личное сообщение
   
Страница 1 из 1
Показать сообщения за:  Поле сортировки  
Начать новую тему Ответить на тему


Сейчас этот форум просматривают: нет зарегистрированных пользователей и гости: 0


Вы не можете начинать темы
Вы не можете отвечать на сообщения
Вы не можете редактировать свои сообщения
Вы не можете удалять свои сообщения
Вы не можете добавлять вложения

Перейти:  
cron