Начать новую тему Ответить на тему
Статистика раздачи
Размер: 183.09 МБ | Добавлен: 26 мар 2019, 19:38 | Скачали: 0
Сидеров: 0  [0 байт/сек]    Личеров: 0  [0 байт/сек]
Пред. тема | След. тема 

Автор
Сообщение

СообщениеДобавлено: 26 мар 2019, 19:38 

Ответить с цитатой 

The Style Council - Introducing
Жанр: Pop/Rock, New Wave, Synth Pop
Год выпуска диска: 1983
Производитель диска: USA
Аудио кодек: APE
Тип рипа: image+.cue
Битрейт аудио: lossless
Продолжительность: 0:34:41
Трэклист:
1. 1 Long Hot Summer (7:00)
2. 2 Headstart for Happiness (2:49)
3. 3 Speak Like a Child (3:17)
4. 4 Long Hot Summer (Club Mix) (6:54)
5. 5 The Paris Match (3:47)
6. 6 Mick's Up (3:10)
7. 7 Money-Go-Round (Club Mix) (7:44)
Доп. информация:
Скачано осликом
релизер неизвестен
Exact Audio Copy V0.99 prebeta 4 from 23. January 2008
EAC extraction logfile from 6. November 2008, 23:59
The Style Council / Introducing
Used drive : ASUS DRW-1814BLT Adapter: 3 ID: 0
Read mode : Secure
Utilize accurate stream : Yes
Defeat audio cache : Yes
Make use of C2 pointers : No
Read offset correction : 6
Overread into Lead-In and Lead-Out : No
Fill up missing offset samples with silence : Yes
Delete leading and trailing silent blocks : No
Null samples used in CRC calculations : Yes
Used interface : Native Win32 interface for Win NT & 2000
Used output format : Monkey's Audio Lossless Encoder v3.99 DLL
Sample format : Normal Lossless Compression
TOC of the extracted CD
Track | Start | Length | Start sector | End sector
---------------------------------------------------------
1 | 0:00.33 | 7:03.52 | 33 | 31809
2 | 7:04.10 | 2:52.30 | 31810 | 44739
3 | 9:56.40 | 3:20.00 | 44740 | 59739
4 | 13:16.40 | 6:57.33 | 59740 | 91047
5 | 20:13.73 | 3:50.32 | 91048 | 108329
6 | 24:04.30 | 3:13.50 | 108330 | 122854
7 | 27:18.05 | 7:44.65 | 122855 | 157719
Range status and errors
Selected range
Filename G:\!!!!!!!!MINE\The Style Council - Introducing(815 277-2) - 1983 - Polydor\The Style Council - Introducing.ape
Peak level 92.2 %
Range quality 100.0 %
Copy CRC 119C8BDA
Copy OK
No errors occurred
AccurateRip summary
Track 1 accurately ripped (confidence 9) [DBD78143]
Track 2 accurately ripped (confidence 9) [02307C60]
Track 3 accurately ripped (confidence 9) [3F618DA7]
Track 4 accurately ripped (confidence 9) [FCBDDC6A]
Track 5 accurately ripped (confidence 9) [AF9956A9]
Track 6 accurately ripped (confidence 9) [07C0C724]
Track 7 accurately ripped (confidence 8) [472688B3]
All tracks accurately ripped
End of status report
AUDIOCHECKER v2.0 beta (build 457) - by Dester - opdester@freemail.hu
~~~~~~~~~~~~~~~~~~~~~~~~~~~~~~~~~~
-=== DO NOT EDIT THIS FILE! ===-
Path: ...\The Style Council - Introducing(815 277-2) - 1983 - Polydor
1 -=- The Style Council - Introducing.ape -=- MPEG (95%)
8194244
Прошу обратить внимание что чекер определяет его как 95 % мпег, поэтому на всякий случай привожу скрины спектров первых двух треков
Правила, инструкции, FAQ!!!
Торрент  Добавлен [26 мар 2019, 19:38] Скачать торрент Магнет ссылка
Скачать торрент
[ Размер 29.58 КБ / Просмотров 0 ]

Статус
Проверен 
 
Размер  183.09 МБ
Приватный: Нет (DHT включён)
.torrent скачан  0
 


     Отправить личное сообщение
   
Страница 1 из 1
Показать сообщения за:  Поле сортировки  
Начать новую тему Ответить на тему


Сейчас этот форум просматривают: нет зарегистрированных пользователей и гости: 0


Вы не можете начинать темы
Вы не можете отвечать на сообщения
Вы не можете редактировать свои сообщения
Вы не можете удалять свои сообщения
Вы не можете добавлять вложения

Перейти:  
cron