Начать новую тему Ответить на тему
Статистика раздачи
Размер: 325.6 МБ | Добавлен: 26 мар 2019, 20:16 | Скачали: 0
Сидеров: 0  [0 байт/сек]    Личеров: 0  [0 байт/сек]
Пред. тема | След. тема 

Автор
Сообщение

СообщениеДобавлено: 26 мар 2019, 20:16 

Ответить с цитатой 

Simple Minds - Celebration
Жанр: Pop/Rock, New Wave
Год выпуска диска: 1982
Производитель диска: Virgin Records Ltd. (0777 7 86382 2 3 / CDV2248)
Аудио кодек: FLAC
Тип рипа: tracks+.cue
Битрейт аудио: lossless
Продолжительность: 48:11
Источник: Собственные рипы
Треклист:
01. Life In A Day - 4:06
02. Chelsea Girl - 4:34
03. Premonition - 5:30
04. Factory - 4:15
05. Calling Your Name - 5:07
06. I Travel - 4:02
07. Changeling - 4:13
08. Celebrate - 5:11
09. Thirty Frames A Second - 6:55
10. Kaleidoscope - 4:17
Доп. информация:
Этот сборник, выпущенный музыкантами накануне выхода вехового альбома "New Gold Dream", как бы подводит итог punk/new wave периоду творчества группы. Он составлен из композиций первых 3-х титульных альбомов: "Life in a Day", "Reel to Real Cacophony" и "Empires and Dance". Десятая же песня, "Kaleidoscope", до этого момента издавалась только на второй стороне винилового сингла "I Travel".
Код:
Exact Audio Copy V0.99 prebeta 5 from 4. May 2009
EAC extraction logfile from 5. January 2010, 21:45
Simple Minds / Celebration
Used drive  : HL-DT-STDVD-RAM GSA-H55N   Adapter: 0  ID: 2
Read mode               : Secure
Utilize accurate stream : Yes
Defeat audio cache      : Yes
Make use of C2 pointers : No
Read offset correction                      : 102
Overread into Lead-In and Lead-Out          : Yes
Fill up missing offset samples with silence : Yes
Delete leading and trailing silent blocks   : No
Null samples used in CRC calculations       : Yes
Used interface                              : Installed external ASPI interface
Gap handling                                : Appended to previous track
Used output format              : User Defined Encoder
Selected bitrate                : 128 kBit/s
Quality                         : High
Add ID3 tag                     : No
Command line compressor         : G:\Program Files\Exact Audio Copy\Encoder\flac.exe
Additional command line options : -V -8 -T "Genre=%m" -T "Artist=%a" -T "Title=%t" -T "Album=%g" -T "Year=%y" -T "Tracknumber=%n" -T "Comment=EACpb5 -8" %s
TOC of the extracted CD
     Track |   Start  |  Length  | Start sector | End sector
    ---------------------------------------------------------
        1  |  0:00.00 |  4:06.17 |         0    |    18466
        2  |  4:06.17 |  4:34.25 |     18467    |    39041
        3  |  8:40.42 |  5:29.45 |     39042    |    63761
        4  | 14:10.12 |  4:15.20 |     63762    |    82906
        5  | 18:25.32 |  5:07.23 |     82907    |   105954
        6  | 23:32.55 |  4:02.00 |    105955    |   124104
        7  | 27:34.55 |  4:13.20 |    124105    |   143099
        8  | 31:48.00 |  5:10.62 |    143100    |   166411
        9  | 36:58.62 |  6:54.73 |    166412    |   197534
       10  | 43:53.60 |  4:17.15 |    197535    |   216824
Track  1
     Filename F:\WAV\01 - Life In A Day.wav
     Pre-gap length  0:00:02.00
     Peak level 100.0 %
     Track quality 100.0 %
     Test CRC F05F9821
     Copy CRC F05F9821
     Accurately ripped (confidence 9)  [04FA5989]
     Copy OK
Track  2
     Filename F:\WAV\02 - Chelsea Girl.wav
     Pre-gap length  0:00:00.02
     Peak level 95.9 %
     Track quality 100.0 %
     Test CRC 964569A3
     Copy CRC 964569A3
     Accurately ripped (confidence 10)  [0E4F7E44]
     Copy OK
Track  3
     Filename F:\WAV\03 - Premonition.wav
     Pre-gap length  0:00:00.02
     Peak level 74.2 %
     Track quality 100.0 %
     Test CRC BACB0D31
     Copy CRC BACB0D31
     Accurately ripped (confidence 10)  [4C7DD346]
     Copy OK
Track  4
     Filename F:\WAV\04 - Factory.wav
     Pre-gap length  0:00:00.02
     Peak level 88.5 %
     Track quality 100.0 %
     Test CRC 8BB3D636
     Copy CRC 8BB3D636
     Accurately ripped (confidence 10)  [5B4CF732]
     Copy OK
Track  5
     Filename F:\WAV\05 - Calling Your Name.wav
     Pre-gap length  0:00:00.02
     Peak level 87.2 %
     Track quality 100.0 %
     Test CRC 3F148151
     Copy CRC 3F148151
     Accurately ripped (confidence 10)  [5A345A15]
     Copy OK
Track  6
     Filename F:\WAV\06 - I Travel.wav
     Pre-gap length  0:00:00.03
     Peak level 84.7 %
     Track quality 100.0 %
     Test CRC 17A368A9
     Copy CRC 17A368A9
     Accurately ripped (confidence 10)  [EFE58737]
     Copy OK
Track  7
     Filename F:\WAV\07 - Changeling.wav
     Pre-gap length  0:00:00.03
     Peak level 88.7 %
     Track quality 100.0 %
     Test CRC BBD7A213
     Copy CRC BBD7A213
     Accurately ripped (confidence 10)  [A3BB3373]
     Copy OK
Track  8
     Filename F:\WAV\08 - Celebrate.wav
     Pre-gap length  0:00:01.00
     Peak level 72.7 %
     Track quality 99.9 %
     Test CRC F2AFA6AE
     Copy CRC F2AFA6AE
     Accurately ripped (confidence 10)  [E74C34B0]
     Copy OK
Track  9
     Filename F:\WAV\09 - Thirty Frames A Second.wav
     Pre-gap length  0:00:00.02
     Peak level 83.3 %
     Track quality 100.0 %
     Test CRC B557834A
     Copy CRC B557834A
     Accurately ripped (confidence 10)  [12B59327]
     Copy OK
Track 10
     Filename F:\WAV\10 - Kaleidoscope.wav
     Pre-gap length  0:00:00.03
     Peak level 96.7 %
     Track quality 100.0 %
     Test CRC D56A6D44
     Copy CRC D56A6D44
     Accurately ripped (confidence 10)  [1565BAC9]
     Copy OK
All tracks accurately ripped
No errors occurred
End of status report
Правила, инструкции, FAQ!!!
Торрент  Добавлен [26 мар 2019, 20:16] Скачать торрент Магнет ссылка
Скачать торрент
[ Размер 14.02 КБ / Просмотров 8 ]

Статус
Проверен 
 
Размер  325.6 МБ
Приватный: Нет (DHT включён)
.torrent скачан  0
 


     Отправить личное сообщение
   
Страница 1 из 1
Показать сообщения за:  Поле сортировки  
Начать новую тему Ответить на тему


Сейчас этот форум просматривают: нет зарегистрированных пользователей и гости: 0


Вы не можете начинать темы
Вы не можете отвечать на сообщения
Вы не можете редактировать свои сообщения
Вы не можете удалять свои сообщения
Вы не можете добавлять вложения

Перейти:  
cron