Начать новую тему Ответить на тему
Статистика раздачи
Размер: 252.69 МБ | Добавлен: 26 мар 2019, 20:33 | Скачали: 0
Сидеров: 0  [0 байт/сек]    Личеров: 0  [0 байт/сек]
Пред. тема | След. тема 

Автор
Сообщение

СообщениеДобавлено: 26 мар 2019, 20:33 

Ответить с цитатой 

John Watts - The Iceberg Model
Жанр: Pop Rock / New Wave
Год выпуска диска: 1983
Производитель диска: EMI Electrola
Тип рипа: image+.cue
Кодек: Monkey's Audio (.ape)
Продолжительость: 42:38
Трэклист:1. Interference
2. Man In Someone Else's Skin
3. I Smelt Roses (In The Underground)
4. I Was In Love With You
5. Money And Power
6. The Prisoner's Dilemma
7. Mayday Mayday
8. Menagerie Makers
9. A Face To Remember
10. Iceberg Model

CD Remastered: 538-7 99097 2
Credits:David Purdye - bass guitar, backing vocals
Dick Adland - drums, percussion, backing vocals
Denis Haines - piano, synthesizer
Brian Brummitt - alto saxophone, backing vocals
Paul Speare - tenor & soprano saxophones, flute, backing vocals
Mick Donnelly - tenor saxophone
Jim Paterson - trombone, backing vocals
Rosa B. - violin, backing vocals
John Watts - vocals, guitar, synthesizer, piano, electronic drums (Syndrum)
Producer - John Watts
Lyrics & music by John Watts
All music arranged by John Watts
Simon Smart - Engineer
Artwork By (concept, painting, art direction) - Philip Dunn
Recorded at Ridge Farm, Trident and Abbey Road Studios.
Mixed at Ridge Farm and Matrix Studios.
(p) 1983 Original sound recordings made by EMI Records Ltd.
(c) 1983 by Wattsongs
Код:
Exact Audio Copy V0.99 prebeta 5 from 4. May 2009
Отчёт EAC об извлечении, выполненном 23. августа 2009, 22:45
John Watts / The Iceberg Model
Дисковод: PIONEER DVD-RW  DVR-112   Adapter: 0  ID: 0
Режим чтения                 : Достоверность
Использование точного потока : Да
Отключение кэша аудио        : Да
Использование указателей C2  : Нет
Коррекция смещения при чтении                     : 48
Способность читать области Lead-in и Lead-out     : Нет
Заполнение пропущенных сэмплов тишиной            : Да
Удаление блоков с тишиной в начале и конце        : Нет
При вычислениях CRC использовались нулевые сэмплы : Да
Интерфейс                                         : Установленный внешний ASPI-интерфейс
Выходной формат : Внутренние WAV-операции
Формат сэмплов  : 44.100 Гц; 16 бит; стерео
TOC извлечённого CD
     Трек |   Старт  | Длительность | Начальный сектор | Конечный сектор
    ---------------------------------------------------------------------
       1  |  0:00.00 |    5:32.10   |           0      |      24909
       2  |  5:32.10 |    2:55.20   |       24910      |      38054
       3  |  8:27.30 |    3:56.05   |       38055      |      55759
       4  | 12:23.35 |    3:36.53   |       55760      |      72012
       5  | 16:00.13 |    4:56.22   |       72013      |      94234
       6  | 20:56.35 |    4:45.33   |       94235      |     115642
       7  | 25:41.68 |    3:46.10   |      115643      |     132602
       8  | 29:28.03 |    5:01.67   |      132603      |     155244
       9  | 34:29.70 |    3:58.38   |      155245      |     173132
      10  | 38:28.33 |    4:09.40   |      173133      |     191847
Характеристики диапазона извлечения и сообщения об ошибках
Выбранный диапазон
     Имя файла D:\John Watts - The Iceberg Model.wav
     Пиковый уровень 100.0 %
     Качество диапазона 100.0 %
     CRC теста D79EF466
     CRC копии D79EF466
     Копирование... OK
Ошибок не произошло
AccurateRip: сводка
Трек  1  нет в базе данных
Трек  2  нет в базе данных
Трек  3  нет в базе данных
Трек  4  нет в базе данных
Трек  5  нет в базе данных
Трек  6  нет в базе данных
Трек  7  нет в базе данных
Трек  8  нет в базе данных
Трек  9  нет в базе данных
Трек 10  нет в базе данных
Ни одного трека нет в базе AccurateRip
Конец отчёта
Файл @Index - краткая информация о содержимом
Правила, инструкции, FAQ!!!
Торрент  Добавлен [26 мар 2019, 20:33] Скачать торрент Магнет ссылка
Скачать торрент
[ Размер 20.72 КБ / Просмотров 1 ]

Статус
Проверен 
 
Размер  252.69 МБ
Приватный: Нет (DHT включён)
.torrent скачан  0
 


     Отправить личное сообщение
   
Страница 1 из 1
Показать сообщения за:  Поле сортировки  
Начать новую тему Ответить на тему


Сейчас этот форум просматривают: нет зарегистрированных пользователей и гости: 0


Вы не можете начинать темы
Вы не можете отвечать на сообщения
Вы не можете редактировать свои сообщения
Вы не можете удалять свои сообщения
Вы не можете добавлять вложения

Перейти:  
cron