Начать новую тему Ответить на тему
Статистика раздачи
Размер: 301.95 МБ | Добавлен: 26 мар 2019, 20:59 | Скачали: 0
Сидеров: 0  [0 байт/сек]    Личеров: 0  [0 байт/сек]
Пред. тема | След. тема 

Автор
Сообщение

СообщениеДобавлено: 26 мар 2019, 20:59 

Ответить с цитатой 

Elvis Costello & The Imposters - Momofuku
Жанр: Pop Rock, New Wave
Год выпуска диска: 2008
Производитель диска: EU
Аудио кодек: FLAC
Тип рипа: image+.cue
Битрейт аудио: lossless
Трэклист:
01. No Hiding Place 04:00
02. American Gangster Time 03:46
03. Turpentine 05:42
04. Harry Worth 04:28
05. Drum & Bone 02:35
06. Flutter & Wow 04:23
07. Stella Hurt 04:46
08. Mr. Feathers 02:46
09. My Three Sons 03:06
10. Song With Rose 03:03
11. Pardon Me, Madam, My Name is Eve 03:53
12. Go Away 04:55
Доп. информация:
Exact Audio Copy V0.99 prebeta 4 from 23. January 2008
Отчёт EAC об извлечении, выполненном 14. сентября 2008, 17:48
Elvis Costello & The Imposters / Momofuku
Дисковод: Optiarc DVD RW AD-7200A Adapter: 0 ID: 0
Режим чтения : Достоверность
Использование точного потока : Да
Отключение кэша аудио : Да
Использование указателей C2 : Нет
Коррекция смещения при чтении : 48
Способность читать области Lead-in и Lead-out : Нет
Заполнение пропущенных сэмплов тишиной : Да
Удаление блоков с тишиной в начале и конце : Нет
При вычислениях CRC использовались нулевые сэмплы : Нет
Интерфейс : Встроенный Win32-интерфейс для Win NT/2000
Выходной формат : Пользовательский кодировщик
Выбранный битрейт : 768 kBit/s
Качество : Высокий
Добавление ID3-тэга : Нет
Утилита сжатия : C:\Program Files\Exact Audio Copy\FLAC\FLAC.EXE
Дополнительные параметры : -6 -V -T "ARTIST=%a" -T "TITLE=%t" -T "ALBUM=%g" -T "DATE=%y" -T "TRACKNUMBER=%n" -T "GENRE=%m" -T "COMMENT=%e" %s -o %d
TOC извлечённого CD
Трек | Старт | Длительность | Начальный сектор | Конечный сектор
---------------------------------------------------------------------
1 | 0:00.00 | 4:00.05 | 0 | 18004
2 | 4:00.05 | 3:46.55 | 18005 | 35009
3 | 7:46.60 | 5:42.00 | 35010 | 60659
4 | 13:28.60 | 4:28.52 | 60660 | 80811
5 | 17:57.37 | 2:35.73 | 80812 | 92509
6 | 20:33.35 | 4:23.62 | 92510 | 112296
7 | 24:57.22 | 4:46.03 | 112297 | 133749
8 | 29:43.25 | 2:46.57 | 133750 | 146256
9 | 32:30.07 | 3:06.20 | 146257 | 160226
10 | 35:36.27 | 3:03.38 | 160227 | 173989
11 | 38:39.65 | 3:53.30 | 173990 | 191494
12 | 42:33.20 | 4:55.22 | 191495 | 213641
Характеристики диапазона извлечения и сообщения об ошибках
Выбранный диапазон
Имя файла D:\Мои документы\BitTorrent Downloads\Elvis Costello & The Imposters - Momofuku.wav
Пиковый уровень 99.8 %
Качество диапазона 100.0 %
CRC теста B2C91226
CRC копии B2C91226
Копирование... OK
Ошибок не произошло
AccurateRip: сводка
Трек 1 точность не определена (достоверность 19) [FDA41039], AccurateRip вернул [18E3BC71]
Трек 2 точность не определена (достоверность 19) [B11CD986], AccurateRip вернул [900EA5E6]
Трек 3 точность не определена (достоверность 19) [39BFD1F7], AccurateRip вернул [19477D84]
Трек 4 точность не определена (достоверность 18) [4D92A291], AccurateRip вернул [F896862B]
Трек 5 точность не определена (достоверность 19) [F45B30C9], AccurateRip вернул [104CE0D7]
Трек 6 точность не определена (достоверность 18) [A73BDAAD], AccurateRip вернул [6487B520]
Трек 7 точность не определена (достоверность 19) [97C19A65], AccurateRip вернул [8B816B0B]
Трек 8 точность не определена (достоверность 19) [2DDBA5D1], AccurateRip вернул [9FF80FBD]
Трек 9 точность не определена (достоверность 19) [64115C8F], AccurateRip вернул [04B999D1]
Трек 10 точность не определена (достоверность 18) [18893D4A], AccurateRip вернул [7BAA174C]
Трек 11 точность не определена (достоверность 19) [81E02A0D], AccurateRip вернул [A2E1585D]
Трек 12 точность не определена (достоверность 19) [4869D7AC], AccurateRip вернул [A8CBBED0]
Ни один трек не прошёл проверки на точность
В вашей базе может быть иной вариант штамповки диска
Конец отчёта
22 апреля вышел новый сольный альбом Элвиса Костелло (Elvis Costello) и группы The Imposters. Чтобы не пришлось гадать, что означает название Momofuku, Элвис Костелло всё объяснил сам. Конечно, все пробовали суп-лапшу быстрого приготовления, но многие не знают, что автор этого блюда – Момофуку Андо (Momofuku Ando). Отсюда и название.
Всё дело в том, что также невероятно быстро приготовил своё музыкальное «блюдо» Элвис Костелло (за неделю!), но он надеется, что оно окажется для слушателя удобоваримым. Как кто-то отметил, эта запись заставляет почувствовать, что вы сидите в студии вместе с музыкантами. А кто-то сказал: эту запись можно назвать лучшей работой Костелло после 'Imperial Bedroom' (1982).
Imposters – это Стив Нив / Steve Nieve (клавишные), Пит Томас / Pete Thomas (многолетний барабанщик Костелло) и Давей Фарагэр / Davey Faragher (бас-гитарист). Гостями или приглашенными артистами стали певица из Лас-Вегаса Дженни Льюис / Jenny Lewis – лидер группы Rilo Kiley; Дэвид Хидалго / David Hidalgo из группы Los Lobos, а также молодой исполнитель и автор песен Джонатан Райс / Johnathan Rice.
'Momofuku' многие сравнивают с тем, что Костелло создавал в конце 70-ых годов – начале 80-ых, то есть этом альбом напоминает раннее творчество музыканта. Стилистически творчество ЭК настолько сильно отличается от той музыки, которая сегодня звучит из айподов, что виниловый формат, действительно, пришелся кстати.
Костелло создал богатую коллекцию песен, которые демонстрируют его любовь к «Битлз»!
Текст: PowerPop.ru
Правила, инструкции, FAQ!!!
Торрент  Добавлен [26 мар 2019, 20:59] Скачать торрент Магнет ссылка
Скачать торрент
[ Размер 48.03 КБ / Просмотров 1 ]

Статус
Проверен 
 
Размер  301.95 МБ
Приватный: Нет (DHT включён)
.torrent скачан  0
 


     Отправить личное сообщение
   
Страница 1 из 1
Показать сообщения за:  Поле сортировки  
Начать новую тему Ответить на тему


Сейчас этот форум просматривают: нет зарегистрированных пользователей и гости: 0


Вы не можете начинать темы
Вы не можете отвечать на сообщения
Вы не можете редактировать свои сообщения
Вы не можете удалять свои сообщения
Вы не можете добавлять вложения

Перейти:  
cron