Начать новую тему Ответить на тему
Статистика раздачи
Размер: 628.67 МБ | Добавлен: 26 мар 2019, 20:01 | Скачали: 0
Сидеров: 1  [0 байт/сек]    Личеров: 0  [0 байт/сек]
Пред. тема | След. тема 

Автор
Сообщение

СообщениеДобавлено: 26 мар 2019, 20:01 

Ответить с цитатой 

Myslovitz - Myslovitz (Reedycja limitowana) (Digipack)
Жанр: Alternative Rock, Brit Pop, Pop Rock
Страна-производитель диска: Poland
Год издания диска: 1995
Издатель (лейбл): MJM Music PL
Номер по каталогу: MJM5217
Страна: Poland
Аудио кодек: FLAC (*.flac)
Тип рипа: tracks+.cue
Битрейт аудио: lossless
Продолжительность: 1:35:39
Источник (релизер): Pijany Drwal
Наличие сканов в содержимом раздачи: нет
Специальный выпуск дебютного альбома группы Myslovitz вышел 16 апреля 2010 г. и дал старт серии "Z archiwum MJM" ("Из архивов MJM".)
Он состоится из вышеупомянутого альбома "Myslovitz" и второй диск, содержащий отрывки из концерта, который состоялся 10 марта 1996 года в Кракове, телевизионная студия, "Łęg". В дополнение к треки с первого альбома группы также прибавлены несколько песен из второго альбома "Sun Machine".
1. Kobieta
2. Papierowe skrzydła
3. Myslovitz
4. Zgon
5. Przedtem
6. Krótka piosenka o miłości
7. Maj
8. Wyznanie
9. Deszcz
10. Good Day My Angel
11. Moving Revolution
Код:
Exact Audio Copy V0.99 prebeta 5 from 4. May 2009
EAC extraction logfile from 23. April 2011, 14:38
Myslovitz / Myslovitz (Reedycja)
Used drive  : TEAC    DV-W518GM   Adapter: 2  ID: 0
Read mode               : Secure
Utilize accurate stream : Yes
Defeat audio cache      : Yes
Make use of C2 pointers : No
Read offset correction                      : 6
Overread into Lead-In and Lead-Out          : No
Fill up missing offset samples with silence : Yes
Delete leading and trailing silent blocks   : No
Null samples used in CRC calculations       : Yes
Used interface                              : Installed external ASPI interface
Gap handling                                : Appended to previous track
Used output format : Internal WAV Routines
Sample format      : 44.100 Hz; 16 Bit; Stereo
TOC of the extracted CD
     Track |   Start  |  Length  | Start sector | End sector
    ---------------------------------------------------------
        1  |  0:00.00 |  3:42.02 |         0    |    16651
        2  |  3:42.02 |  2:29.65 |     16652    |    27891
        3  |  6:11.67 |  3:56.73 |     27892    |    45664
        4  | 10:08.65 |  2:33.02 |     45665    |    57141
        5  | 12:41.67 |  3:58.28 |     57142    |    75019
        6  | 16:40.20 |  3:34.50 |     75020    |    91119
        7  | 20:14.70 |  6:26.52 |     91120    |   120121
        8  | 26:41.47 |  6:05.70 |    120122    |   147566
        9  | 32:47.42 |  6:34.63 |    147567    |   177179
       10  | 39:22.30 |  6:57.70 |    177180    |   208524
       11  | 46:20.25 |  7:54.27 |    208525    |   244101
Track  1
     Filename E:\POLAND PROG-lossless\2.MYSLOVITZ\1995 Myslovitz - Myslovitz (Reedycja 2010)\01 - Kobieta.wav
     Pre-gap length  0:00:02.00
     Peak level 98.8 %
     Track quality 100.0 %
     Test CRC 38706946
     Copy CRC 38706946
     Cannot be verified as accurate (confidence 1)  [28B15862], AccurateRip returned [CB0BB14A]
     Copy OK
Track  2
     Filename E:\POLAND PROG-lossless\2.MYSLOVITZ\1995 Myslovitz - Myslovitz (Reedycja 2010)\02 - Papierowe skrzydla.wav
     Peak level 98.8 %
     Track quality 100.0 %
     Test CRC 010B3803
     Copy CRC 010B3803
     Cannot be verified as accurate (confidence 1)  [8B424938], AccurateRip returned [5C02F4C6]
     Copy OK
Track  3
     Filename E:\POLAND PROG-lossless\2.MYSLOVITZ\1995 Myslovitz - Myslovitz (Reedycja 2010)\03 - Myslovitz.wav
     Peak level 98.8 %
     Track quality 100.0 %
     Test CRC 71DF1088
     Copy CRC 71DF1088
     Cannot be verified as accurate (confidence 1)  [251927E3], AccurateRip returned [F1B01B9F]
     Copy OK
Track  4
     Filename E:\POLAND PROG-lossless\2.MYSLOVITZ\1995 Myslovitz - Myslovitz (Reedycja 2010)\04 - Zgon.wav
     Peak level 98.8 %
     Track quality 100.0 %
     Test CRC 08BB399C
     Copy CRC 08BB399C
     Cannot be verified as accurate (confidence 1)  [20AD292F], AccurateRip returned [6CB9843B]
     Copy OK
Track  5
     Filename E:\POLAND PROG-lossless\2.MYSLOVITZ\1995 Myslovitz - Myslovitz (Reedycja 2010)\05 - Przedtem.wav
     Peak level 98.8 %
     Track quality 100.0 %
     Test CRC ED0E2D75
     Copy CRC ED0E2D75
     Cannot be verified as accurate (confidence 1)  [B433288E], AccurateRip returned [43A23E3F]
     Copy OK
Track  6
     Filename E:\POLAND PROG-lossless\2.MYSLOVITZ\1995 Myslovitz - Myslovitz (Reedycja 2010)\06 - Krotka piosenka o milosci.wav
     Peak level 98.8 %
     Track quality 100.0 %
     Test CRC 7FB493F7
     Copy CRC 7FB493F7
     Cannot be verified as accurate (confidence 1)  [51D3F6B8], AccurateRip returned [B5D24F4D]
     Copy OK
Track  7
     Filename E:\POLAND PROG-lossless\2.MYSLOVITZ\1995 Myslovitz - Myslovitz (Reedycja 2010)\07 - Maj.wav
     Peak level 98.8 %
     Track quality 100.0 %
     Test CRC 63F94188
     Copy CRC 63F94188
     Cannot be verified as accurate (confidence 1)  [ABE5684C], AccurateRip returned [7B582208]
     Copy OK
Track  8
     Filename E:\POLAND PROG-lossless\2.MYSLOVITZ\1995 Myslovitz - Myslovitz (Reedycja 2010)\08 - Wyznanie.wav
     Peak level 98.8 %
     Track quality 99.9 %
     Test CRC 49AB4526
     Copy CRC 49AB4526
     Cannot be verified as accurate (confidence 1)  [830D8788], AccurateRip returned [BBE3C44E]
     Copy OK
Track  9
     Filename E:\POLAND PROG-lossless\2.MYSLOVITZ\1995 Myslovitz - Myslovitz (Reedycja 2010)\09 - Deszcz.wav
     Peak level 98.8 %
     Track quality 99.9 %
     Test CRC 1F0EA578
     Copy CRC 1F0EA578
     Cannot be verified as accurate (confidence 1)  [3D3AB93B], AccurateRip returned [43D44E55]
     Copy OK
Track 10
     Filename E:\POLAND PROG-lossless\2.MYSLOVITZ\1995 Myslovitz - Myslovitz (Reedycja 2010)\10 - Good day my angel.wav
     Peak level 98.8 %
     Track quality 100.0 %
     Test CRC A530ADAB
     Copy CRC A530ADAB
     Cannot be verified as accurate (confidence 1)  [3673969E], AccurateRip returned [EB8319DB]
     Copy OK
Track 11
     Filename E:\POLAND PROG-lossless\2.MYSLOVITZ\1995 Myslovitz - Myslovitz (Reedycja 2010)\11 - Moving revolution.wav
     Peak level 98.8 %
     Track quality 100.0 %
     Test CRC 6020ADEA
     Copy CRC 6020ADEA
     Cannot be verified as accurate (confidence 1)  [123A4D15], AccurateRip returned [5F4E15B9]
     Copy OK
No tracks could be verified as accurate
You may have a different pressing from the one(s) in the database
No errors occurred
End of status report
Код:
REM DISCID 800CB60B
REM COMMENT "ExactAudioCopy v0.99pb5"
PERFORMER "Myslovitz"
TITLE "Myslovitz (Reedycja)"
FILE "01 - Kobieta.wav" WAVE
  TRACK 01 AUDIO
    TITLE "Kobieta"
    PERFORMER "Myslovitz"
    FLAGS DCP
    INDEX 01 00:00:00
FILE "02 - Papierowe skrzydla.wav" WAVE
  TRACK 02 AUDIO
    TITLE "Papierowe skrzydla"
    PERFORMER "Myslovitz"
    FLAGS DCP
    INDEX 01 00:00:00
FILE "03 - Myslovitz.wav" WAVE
  TRACK 03 AUDIO
    TITLE "Myslovitz"
    PERFORMER "Myslovitz"
    FLAGS DCP
    INDEX 01 00:00:00
FILE "04 - Zgon.wav" WAVE
  TRACK 04 AUDIO
    TITLE "Zgon"
    PERFORMER "Myslovitz"
    FLAGS DCP
    INDEX 01 00:00:00
FILE "05 - Przedtem.wav" WAVE
  TRACK 05 AUDIO
    TITLE "Przedtem"
    PERFORMER "Myslovitz"
    FLAGS DCP
    INDEX 01 00:00:00
FILE "06 - Krotka piosenka o milosci.wav" WAVE
  TRACK 06 AUDIO
    TITLE "Krotka piosenka o milosci"
    PERFORMER "Myslovitz"
    FLAGS DCP
    INDEX 01 00:00:00
FILE "07 - Maj.wav" WAVE
  TRACK 07 AUDIO
    TITLE "Maj"
    PERFORMER "Myslovitz"
    FLAGS DCP
    INDEX 01 00:00:00
FILE "08 - Wyznanie.wav" WAVE
  TRACK 08 AUDIO
    TITLE "Wyznanie"
    PERFORMER "Myslovitz"
    FLAGS DCP
    INDEX 01 00:00:00
FILE "09 - Deszcz.wav" WAVE
  TRACK 09 AUDIO
    TITLE "Deszcz"
    PERFORMER "Myslovitz"
    FLAGS DCP
    INDEX 01 00:00:00
FILE "10 - Good day my angel.wav" WAVE
  TRACK 10 AUDIO
    TITLE "Good day my angel"
    PERFORMER "Myslovitz"
    FLAGS DCP
    INDEX 01 00:00:00
FILE "11 - Moving revolution.wav" WAVE
  TRACK 11 AUDIO
    TITLE "Moving revolution"
    PERFORMER "Myslovitz"
    FLAGS DCP
    INDEX 01 00:00:00
Код:
AUDIOCHECKER v2.0 beta (build 457) - by Dester - opdester@freemail.hu
~~~~~~~~~~~~~~~~~~~~~~~~~~~~~~~~~~
-=== DO NOT EDIT THIS FILE! ===-
Path: ...\CD1
01 -=- 01 - Kobieta.flac -=- CDDA (100%)
02 -=- 02 - Papierowe Skrzydla.flac -=- CDDA (99%)
03 -=- 03 - Myslovitz.flac -=- CDDA (99%)
04 -=- 04 - Zgon.flac -=- CDDA (100%)
05 -=- 05 - Przedtem.flac -=- CDDA (100%)
06 -=- 06 - Krotka Piosenka O Milosci.flac -=- CDDA (100%)
07 -=- 07 - Maj.flac -=- CDDA (100%)
08 -=- 08 - Wyznanie.flac -=- CDDA (100%)
09 -=- 09 - Deszcz.flac -=- CDDA (100%)
10 -=- 10 - Good Day My Angel.flac -=- CDDA (100%)
11 -=- 11 - Moving Revolution.flac -=- CDDA (100%)
Summary 99,82% CDDA
21297188
1. Papierowe skrzydła
2. Zgon
3. Przedtem
4. Krótka piosenka o miłości
5. Maj
6. Deszcz
7. Blue velvet
8. Amfetaminowa siostra
9. Good day my angel
10. Sun machine
Код:
Exact Audio Copy V0.99 prebeta 5 from 4. May 2009
EAC extraction logfile from 23. April 2011, 13:05
Myslowitz / Myslowitz (Reedycja)
Used drive  : TEAC    DV-W518GM   Adapter: 2  ID: 0
Read mode               : Secure
Utilize accurate stream : Yes
Defeat audio cache      : Yes
Make use of C2 pointers : No
Read offset correction                      : 6
Overread into Lead-In and Lead-Out          : No
Fill up missing offset samples with silence : Yes
Delete leading and trailing silent blocks   : No
Null samples used in CRC calculations       : Yes
Used interface                              : Installed external ASPI interface
Gap handling                                : Appended to previous track
Used output format : Internal WAV Routines
Sample format      : 44.100 Hz; 16 Bit; Stereo
TOC of the extracted CD
     Track |   Start  |  Length  | Start sector | End sector
    ---------------------------------------------------------
        1  |  0:00.00 |  2:24.18 |         0    |    10817
        2  |  2:24.18 |  2:36.34 |     10818    |    22551
        3  |  5:00.52 |  3:45.37 |     22552    |    39463
        4  |  8:46.14 |  3:23.20 |     39464    |    54708
        5  | 12:09.34 |  6:32.38 |     54709    |    84146
        6  | 18:41.72 |  6:25.16 |     84147    |   113037
        7  | 25:07.13 |  2:57.49 |    113038    |   126361
        8  | 28:04.62 |  4:50.27 |    126362    |   148138
        9  | 32:55.14 |  7:36.60 |    148139    |   182398
       10  | 40:31.74 |  0:52.64 |    182399    |   186362
Track  1
     Filename E:\POLAND PROG-lossless\2.MYSLOVITZ\1995 Myslovitz - Myslovitz (Reedycja 2010)\01 - Papierowe skrzydla.wav
     Pre-gap length  0:00:02.00
     Peak level 99.8 %
     Track quality 100.0 %
     Test CRC 5855B7DD
     Copy CRC 5855B7DD
     Cannot be verified as accurate (confidence 1)  [E490225D], AccurateRip returned [CADEBDFC]
     Copy OK
Track  2
     Filename E:\POLAND PROG-lossless\2.MYSLOVITZ\1995 Myslovitz - Myslovitz (Reedycja 2010)\02 - Zgon.wav
     Peak level 99.8 %
     Track quality 100.0 %
     Test CRC 87370AC0
     Copy CRC 87370AC0
     Cannot be verified as accurate (confidence 1)  [66B75757], AccurateRip returned [EE76361D]
     Copy OK
Track  3
     Filename E:\POLAND PROG-lossless\2.MYSLOVITZ\1995 Myslovitz - Myslovitz (Reedycja 2010)\03 - Przedtem.wav
     Peak level 99.8 %
     Track quality 100.0 %
     Test CRC F636BA95
     Copy CRC F636BA95
     Cannot be verified as accurate (confidence 1)  [E71AAF47], AccurateRip returned [E71C3A2A]
     Copy OK
Track  4
     Filename E:\POLAND PROG-lossless\2.MYSLOVITZ\1995 Myslovitz - Myslovitz (Reedycja 2010)\04 - Krotka piosenka o milosci.wav
     Peak level 99.8 %
     Track quality 100.0 %
     Test CRC 2142CAF0
     Copy CRC 2142CAF0
     Cannot be verified as accurate (confidence 1)  [F28836DF], AccurateRip returned [D4CFBA5E]
     Copy OK
Track  5
     Filename E:\POLAND PROG-lossless\2.MYSLOVITZ\1995 Myslovitz - Myslovitz (Reedycja 2010)\05 - Maj.wav
     Peak level 99.8 %
     Track quality 99.9 %
     Test CRC 476BCCA3
     Copy CRC 476BCCA3
     Cannot be verified as accurate (confidence 1)  [70075509], AccurateRip returned [A0597ECB]
     Copy OK
Track  6
     Filename E:\POLAND PROG-lossless\2.MYSLOVITZ\1995 Myslovitz - Myslovitz (Reedycja 2010)\06 - Deszcz.wav
     Peak level 97.3 %
     Track quality 100.0 %
     Test CRC 88A3ACE5
     Copy CRC 88A3ACE5
     Cannot be verified as accurate (confidence 1)  [077E0F7E], AccurateRip returned [D2C086F3]
     Copy OK
Track  7
     Filename E:\POLAND PROG-lossless\2.MYSLOVITZ\1995 Myslovitz - Myslovitz (Reedycja 2010)\07 - Blue Velvet.wav
     Peak level 99.8 %
     Track quality 99.9 %
     Test CRC E6C50E13
     Copy CRC E6C50E13
     Cannot be verified as accurate (confidence 1)  [32C70391], AccurateRip returned [ED57F59F]
     Copy OK
Track  8
     Filename E:\POLAND PROG-lossless\2.MYSLOVITZ\1995 Myslovitz - Myslovitz (Reedycja 2010)\08 - Amfetaminowa siostra.wav
     Peak level 99.8 %
     Track quality 100.0 %
     Test CRC 523FBAA4
     Copy CRC 523FBAA4
     Cannot be verified as accurate (confidence 1)  [608A91C3], AccurateRip returned [CAA390A6]
     Copy OK
Track  9
     Filename E:\POLAND PROG-lossless\2.MYSLOVITZ\1995 Myslovitz - Myslovitz (Reedycja 2010)\09 - Good Day My Angel.wav
     Peak level 99.8 %
     Track quality 100.0 %
     Test CRC E8FFA100
     Copy CRC E8FFA100
     Cannot be verified as accurate (confidence 1)  [50E00C44], AccurateRip returned [DC3D6490]
     Copy OK
Track 10
     Filename E:\POLAND PROG-lossless\2.MYSLOVITZ\1995 Myslovitz - Myslovitz (Reedycja 2010)\10 - Sun Machine (a'capella).wav
     Peak level 70.7 %
     Track quality 100.0 %
     Test CRC D976DE96
     Copy CRC D976DE96
     Cannot be verified as accurate (confidence 1)  [09FD7F69], AccurateRip returned [463ABECC]
     Copy OK
No tracks could be verified as accurate
You may have a different pressing from the one(s) in the database
No errors occurred
End of status report
Код:
REM GENRE Rock
REM DATE 2010
REM DISCID 7B09B40A
REM COMMENT "ExactAudioCopy v0.99pb5"
PERFORMER "Myslowitz"
TITLE "Myslowitz (Reedycja)"
FILE "01 - Papierowe skrzydla.wav" WAVE
  TRACK 01 AUDIO
    TITLE "Papierowe skrzydla"
    PERFORMER "Myslowitz"
    FLAGS DCP
    INDEX 01 00:00:00
FILE "02 - Zgon.wav" WAVE
  TRACK 02 AUDIO
    TITLE "Zgon"
    PERFORMER "Myslowitz"
    FLAGS DCP
    INDEX 01 00:00:00
FILE "03 - Przedtem.wav" WAVE
  TRACK 03 AUDIO
    TITLE "Przedtem"
    PERFORMER "Myslowitz"
    FLAGS DCP
    INDEX 01 00:00:00
FILE "04 - Krotka piosenka o milosci.wav" WAVE
  TRACK 04 AUDIO
    TITLE "Krotka piosenka o milosci"
    PERFORMER "Myslowitz"
    FLAGS DCP
    INDEX 01 00:00:00
FILE "05 - Maj.wav" WAVE
  TRACK 05 AUDIO
    TITLE "Maj"
    PERFORMER "Myslowitz"
    FLAGS DCP
    INDEX 01 00:00:00
FILE "06 - Deszcz.wav" WAVE
  TRACK 06 AUDIO
    TITLE "Deszcz"
    PERFORMER "Myslowitz"
    FLAGS DCP
    INDEX 01 00:00:00
FILE "07 - Blue Velvet.wav" WAVE
  TRACK 07 AUDIO
    TITLE "Blue Velvet"
    PERFORMER "Myslowitz"
    FLAGS DCP
    INDEX 01 00:00:00
FILE "08 - Amfetaminowa siostra.wav" WAVE
  TRACK 08 AUDIO
    TITLE "Amfetaminowa siostra"
    PERFORMER "Myslowitz"
    FLAGS DCP
    INDEX 01 00:00:00
FILE "09 - Good Day My Angel.wav" WAVE
  TRACK 09 AUDIO
    TITLE "Good Day My Angel"
    PERFORMER "Myslowitz"
    FLAGS DCP
    INDEX 01 00:00:00
FILE "10 - Sun Machine (a'capella).wav" WAVE
  TRACK 10 AUDIO
    TITLE "Sun Machine (a'capella)"
    PERFORMER "Myslowitz"
    FLAGS DCP
    INDEX 01 00:00:00
Код:
AUDIOCHECKER v2.0 beta (build 457) - by Dester - opdester@freemail.hu
~~~~~~~~~~~~~~~~~~~~~~~~~~~~~~~~~~
-=== DO NOT EDIT THIS FILE! ===-
Path: ...\CD2
01 -=- 01 - Papierowe Skrzydla.flac -=- CDDA (100%)
02 -=- 02 - Zgon.flac -=- CDDA (100%)
03 -=- 03 - Przedtem.flac -=- CDDA (100%)
04 -=- 04 - Krotka Piosenka O Milosci.flac -=- CDDA (100%)
05 -=- 05 - Maj.flac -=- CDDA (100%)
06 -=- 06 - Deszcz.flac -=- CDDA (100%)
07 -=- 07 - Blue Velvet.flac -=- CDDA (100%)
08 -=- 08 - Amfetaminowa Siostra.flac -=- CDDA (99%)
09 -=- 09 - Good Day My Angel.flac -=- CDDA (100%)
10 -=- 10 - Sun Machine (A'capella).flac -=- CDDA (100%)
Summary 99,90% CDDA
238384660
Myslovitz is a debut studio album by Polish alternative rock band Myslovitz, released in 1995. It contains 11 tracks. The album is clearly divided into two parts. The first 6 tracks are melodious pop-rock compositions, the next are mostly psychedelic ballads. In many moments the vocal is two-part. The album begins Myslovitz's career in the Polish field of music.
Послушайте о чем говорим:
http://www.amazonka.pl/myslovitz-reedycja-limitowana-digipack_myslovitz,99901527610.bhtml
Artur Rojek - lead vocals, guitar
Wojciech (Wojtek) Powaga - guitar
Przemysław (Przemek) Myszor - guitar, keyboards
Jacek Kuderski - bass guitar
Wojciech (Wojtek, "Lala") Kuderski - drums, percussion
Выложено по желании Amber_Lacerta
Правила, инструкции, FAQ!!!
Торрент  Добавлен [26 мар 2019, 20:01] Скачать торрент Магнет ссылка
Скачать торрент
[ Размер 14.29 КБ / Просмотров 2 ]

Статус
Проверен 
 
Размер  628.67 МБ
Приватный: Нет (DHT включён)
.torrent скачан  0
 


     Отправить личное сообщение
   
Страница 1 из 1
Показать сообщения за:  Поле сортировки  
Начать новую тему Ответить на тему


Сейчас этот форум просматривают: нет зарегистрированных пользователей и гости: 0


Вы не можете начинать темы
Вы не можете отвечать на сообщения
Вы не можете редактировать свои сообщения
Вы не можете удалять свои сообщения
Вы не можете добавлять вложения

Перейти:  
cron