Начать новую тему Ответить на тему
Статистика раздачи
Размер: 242.15 МБ | Добавлен: 26 мар 2019, 18:52 | Скачали: 0
Сидеров: 0  [0 байт/сек]    Личеров: 0  [0 байт/сек]
Пред. тема | След. тема 

Автор
Сообщение

СообщениеДобавлено: 26 мар 2019, 18:52 

Ответить с цитатой 

Myslovitz - Nieważne Jak Wysoko Jesteśmy...
Жанр: Pop Rock
Страна-производитель диска: Poland
Год издания диска: 2011
Издатель (лейбл): EMI Music Poland
Номер по каталогу: 5099902841021
Страна: Poland
Аудиокодек: FLAC (*.flac)
Тип рипа: tracks+.cue
Битрейт аудио: lossless
Продолжительность: 41:14
Источник (релизер): martyr
Наличие сканов в содержимом раздачи: нет
После пятилетнего перерыва с студийный альбом возвращается один из лучших польских колективов - Myslovitz. Альбом под названием „Nieważne jak wysoko jesteśmy” (Не важно, как высоко мы). В начале 2010 года группа вошла в студию, чтобы начать запись нового альбома. Как говорят сами музыканты: "Это самый творческий момент в нашей карьере, мы создали 18 песни, из которых только некоторые найдете на альбоме. К нашему удивлению, все песни были настолько интересными, что было трудно для нас, чтобы расстаться с некоторыми. Поэтому мы решили випустить два альбома по разному времени. А здесь и первий сингл с альбома - „Ukryte”.
Myslovitz - Ukryte (official music video)
Треклист:
1 Skaza 5:35
2 Art Brut 4:47
3 Przypadek Hermana Rotha 4:38
4 Ukryte 4:10
5 Ofiary Zapaści Teatru Telewizji 3:43
6 Efekt Motyla 4:25
7 Srebrna Nitka Ciszy 3:18
8 21 Gramów 5:22
9 Blog Filatelistów Polskich 5:12
-
Код:
Exact Audio Copy V0.99 prebeta 5 from 4. May 2009
EAC extraction logfile from 21. June 2011, 13:26
Myslovitz / Niewazne Jak Wysoko Jestesmy...
Used drive  : TSSTcorpCDDVDW SH-S222A   Adapter: 2  ID: 0
Read mode               : Secure
Utilize accurate stream : Yes
Defeat audio cache      : Yes
Make use of C2 pointers : No
Read offset correction                      : 6
Overread into Lead-In and Lead-Out          : No
Fill up missing offset samples with silence : Yes
Delete leading and trailing silent blocks   : No
Null samples used in CRC calculations       : Yes
Used interface                              : Installed external ASPI interface
Gap handling                                : Appended to previous track
Used output format : Internal WAV Routines
Sample format      : 44.100 Hz; 16 Bit; Stereo
TOC of the extracted CD
     Track |   Start  |  Length  | Start sector | End sector
    ---------------------------------------------------------
        1  |  0:00.00 |  5:35.12 |         0    |    25136
        2  |  5:35.12 |  4:47.06 |     25137    |    46667
        3  | 10:22.18 |  4:38.50 |     46668    |    67567
        4  | 15:00.68 |  4:10.33 |     67568    |    86350
        5  | 19:11.26 |  3:43.12 |     86351    |   103087
        6  | 22:54.38 |  4:25.35 |    103088    |   122997
        7  | 27:19.73 |  3:18.52 |    122998    |   137899
        8  | 30:38.50 |  5:22.17 |    137900    |   162066
        9  | 36:00.67 |  5:12.61 |    162067    |   185527
Track  1
     Filename D:\Downloads\ZEUS\1.POLAND MUSIC\Myslovitz - Niewazne Jak Wysoko Jestesmy (2011)\01 - Skaza.wav
     Pre-gap length  0:00:02.00
     Peak level 37.9 %
     Track quality 100.0 %
     Test CRC 77C23E38
     Copy CRC 77C23E38
     Cannot be verified as accurate (confidence 1)  [72D07377], AccurateRip returned [238A66AD]
     Copy OK
Track  2
     Filename D:\Downloads\ZEUS\1.POLAND MUSIC\Myslovitz - Niewazne Jak Wysoko Jestesmy (2011)\02 - Art Brut.wav
     Peak level 38.0 %
     Track quality 100.0 %
     Test CRC 6506FC71
     Copy CRC 6506FC71
     Cannot be verified as accurate (confidence 1)  [36F41FBE], AccurateRip returned [7D6E906D]
     Copy OK
Track  3
     Filename D:\Downloads\ZEUS\1.POLAND MUSIC\Myslovitz - Niewazne Jak Wysoko Jestesmy (2011)\03 - Przypadek Hermana Rotha.wav
     Peak level 37.9 %
     Track quality 100.0 %
     Test CRC 60364AB4
     Copy CRC 60364AB4
     Cannot be verified as accurate (confidence 1)  [7C187A69], AccurateRip returned [F0E50ED5]
     Copy OK
Track  4
     Filename D:\Downloads\ZEUS\1.POLAND MUSIC\Myslovitz - Niewazne Jak Wysoko Jestesmy (2011)\04 - Ukryte.wav
     Peak level 37.9 %
     Track quality 100.0 %
     Test CRC 942F84A9
     Copy CRC 942F84A9
     Cannot be verified as accurate (confidence 1)  [B8A64B83], AccurateRip returned [A8A4B8EF]
     Copy OK
Track  5
     Filename D:\Downloads\ZEUS\1.POLAND MUSIC\Myslovitz - Niewazne Jak Wysoko Jestesmy (2011)\05 - Ofiary Zapasci Teatru Telewizji.wav
     Peak level 37.9 %
     Track quality 99.9 %
     Test CRC C3187F30
     Copy CRC C3187F30
     Cannot be verified as accurate (confidence 1)  [BA0EDAC8], AccurateRip returned [CF5F0455]
     Copy OK
Track  6
     Filename D:\Downloads\ZEUS\1.POLAND MUSIC\Myslovitz - Niewazne Jak Wysoko Jestesmy (2011)\06 - Efekt Motyla.wav
     Peak level 37.9 %
     Track quality 100.0 %
     Test CRC 902555F0
     Copy CRC 902555F0
     Cannot be verified as accurate (confidence 1)  [7059A401], AccurateRip returned [7A8BFEB2]
     Copy OK
Track  7
     Filename D:\Downloads\ZEUS\1.POLAND MUSIC\Myslovitz - Niewazne Jak Wysoko Jestesmy (2011)\07 - Srebrna Nitka Ciszy.wav
     Peak level 37.5 %
     Track quality 100.0 %
     Test CRC 0872D071
     Copy CRC 0872D071
     Cannot be verified as accurate (confidence 1)  [A3DDE603], AccurateRip returned [60FF8C83]
     Copy OK
Track  8
     Filename D:\Downloads\ZEUS\1.POLAND MUSIC\Myslovitz - Niewazne Jak Wysoko Jestesmy (2011)\08 - 21 Gramow.wav
     Peak level 37.9 %
     Track quality 99.9 %
     Test CRC B5FD918C
     Copy CRC B5FD918C
     Cannot be verified as accurate (confidence 1)  [06922A3E], AccurateRip returned [EEB69B1B]
     Copy OK
Track  9
     Filename D:\Downloads\ZEUS\1.POLAND MUSIC\Myslovitz - Niewazne Jak Wysoko Jestesmy (2011)\09 - Blog Filatelistow Polskich.wav
     Peak level 37.9 %
     Track quality 99.9 %
     Test CRC E587C789
     Copy CRC E587C789
     Cannot be verified as accurate (confidence 1)  [B7B8B5DE], AccurateRip returned [05DFDB6A]
     Copy OK
No tracks could be verified as accurate
You may have a different pressing from the one(s) in the database
No errors occurred
End of status report
Код:
REM GENRE Rock
REM DATE 2011
REM DISCID 6509A909
REM COMMENT "ExactAudioCopy v0.99pb5"
PERFORMER "Myslovitz"
TITLE "Niewazne Jak Wysoko Jestesmy..."
FILE "01 - Skaza.wav" WAVE
  TRACK 01 AUDIO
    TITLE "Skaza"
    PERFORMER "Myslovitz"
    INDEX 01 00:00:00
FILE "02 - Art Brut.wav" WAVE
  TRACK 02 AUDIO
    TITLE "Art Brut"
    PERFORMER "Myslovitz"
    INDEX 01 00:00:00
FILE "03 - Przypadek Hermana Rotha.wav" WAVE
  TRACK 03 AUDIO
    TITLE "Przypadek Hermana Rotha"
    PERFORMER "Myslovitz"
    INDEX 01 00:00:00
FILE "04 - Ukryte.wav" WAVE
  TRACK 04 AUDIO
    TITLE "Ukryte"
    PERFORMER "Myslovitz"
    INDEX 01 00:00:00
FILE "05 - Ofiary Zapasci Teatru Telewizji.wav" WAVE
  TRACK 05 AUDIO
    TITLE "Ofiary Zapasci Teatru Telewizji"
    PERFORMER "Myslovitz"
    INDEX 01 00:00:00
FILE "06 - Efekt Motyla.wav" WAVE
  TRACK 06 AUDIO
    TITLE "Efekt Motyla"
    PERFORMER "Myslovitz"
    INDEX 01 00:00:00
FILE "07 - Srebrna Nitka Ciszy.wav" WAVE
  TRACK 07 AUDIO
    TITLE "Srebrna Nitka Ciszy"
    PERFORMER "Myslovitz"
    INDEX 01 00:00:00
FILE "08 - 21 Gramow.wav" WAVE
  TRACK 08 AUDIO
    TITLE "21 Gramow"
    PERFORMER "Myslovitz"
    INDEX 01 00:00:00
FILE "09 - Blog Filatelistow Polskich.wav" WAVE
  TRACK 09 AUDIO
    TITLE "Blog Filatelistow Polskich"
    PERFORMER "Myslovitz"
    INDEX 01 00:00:00
Код:
AUDIOCHECKER v2.0 beta (build 457) - by Dester - opdester@freemail.hu
~~~~~~~~~~~~~~~~~~~~~~~~~~~~~~~~~~
-=== DO NOT EDIT THIS FILE! ===-
Path: ...\Myslovitz - Niewazne Jak Wysoko Jestesmy (2011)
1 -=- 01 - Skaza.flac -=- CDDA (100%)
2 -=- 02 - Art Brut.flac -=- CDDA (100%)
3 -=- 03 - Przypadek Hermana Rotha.flac -=- CDDA (100%)
4 -=- 04 - Ukryte.flac -=- CDDA (100%)
5 -=- 05 - Ofiary Zapasci Teatru Telewizji.flac -=- CDDA (100%)
6 -=- 06 - Efekt Motyla.flac -=- CDDA (100%)
7 -=- 07 - Srebrna Nitka Ciszy.flac -=- CDDA (100%)
8 -=- 08 - 21 Gramow.flac -=- CDDA (100%)
9 -=- 09 - Blog Filatelistow Polskich.flac -=- CDDA (99%)
Summary 99,89% CDDA
244332372
Myslovitz – Nieważne Jak Wysoko Jesteśmy
Label: EMI Music Poland
Catalog#: 5099902841021
Format: CD, Album
Country: Poland
Released: 30 May 2011
Genre: Rock
Barcode: 5099902841021
Matrix Number: www.takt.eu Takt Logo 2100003116369 Takt Logo
Other (Mastering SID Code): IFPI LK97
Other (Mould SID Code): IFPI 9R82
http://merlin.pl/Niewazne-jak-wysoko-jestesmy_Myslovitz/browse/product/4,910869.html#fullinfo
MYSLOVITZ - "Nieważne jak wysoko jesteśmy..."
Trudno recenzować płytę zespołu, którego jest się najgorszym krytykiem na świecie.
Na "dzień dobry" pragnę Panie i Panów bezceremonialnie poinformować, że jako słuchacz i zapowiadacz nigdy nie miałem zbyt wielkiego dystansu do twórczości mysłowickiej piątki. Co więcej, nigdy się tego nie wstydziłem, do czego dziarsko zachęcam innych, jeszcze niezdecydowanych.
Bycie ortodoksyjnym fanem Myslovitz jest od 16 lat zajęciem co najmniej przyjemnym. Nawet, jeśli weźmie się pod uwagę wątłe alibi muzyków w kwestii "czy ten zespół to jeszcze zespół, czy już tylko grająca piosenki firma?". Zresztą sami zainteresowani niespecjalnie bawią się tu w dyplomatów, bo ich muzyczne przedsiębiorstwo od dłuższego czasu generuje przyzwoite zyski. Słodki problem w przypadku Myslovitz polega jednak na tym, że zespół na rodzinny chleb zarabia uczciwie i na poziomie wciąż nieosiągalnym dla setek innych nadwiślańskich kapel, w tym własnych, poważnie kontuzjowanych epigonów. A nowy album powinien to bezdyskusyjnie potwierdzić.
I żeby nie było tylko w pozycji "na klęczkach i z ręcyma do modlitwy", postanowiłem po raz pierwszy publicznie policzyć kleksy, jakie zdarzyły się tej orkiestrze. Proszę bardzo. Zaśpiewana rumuńskim angielskim eksportowa w założeniu wersja płyty "Korova Milky Bar". Cover "Historii jednej znajomości" Czerwonych Gitar. "Książę życia umiera", czyli dziwaczny hołd dla najlepszego i najbardziej rock'n'rollowego piłkarza w historii – George'a Besta. Produkcyjna wywrotka w "Złe mi się śni", która to pieśń przystawała do albumu "Happiness Is Easy" tak, jak Myslovitz do grupy Talk Talk. Wystarczy. Resztę zapisujemy zespołowi po stronie plusów. A nawet plusiorów.
Pięć lat bez nowego materiału, roczna przerwa w regularnej działalności koncertowej (2008 rok), odwlekanie premiery nowego krążka i jeden ewidentny na dziewięć wydanych właśnie kawałków singiel to zestaw, który mógłby spektakularnie popchnąć wielu artystów w stronę rynkowego samobója. Nie w tym przypadku. Myslovitz obronią się w piękny, brawurowy sposób, bo "Nieważne jak wysoko jesteśmy" jest cholernie mocną płytą.
Całość robi brzydkie "kuku" poszukiwaczom gitarowych singli. Oprócz wybranego do promocji utworu "Ukryte", nie ma tu takich piosenek. Współczynnik "jesteśmy radio friendly" zostaje na potrzeby tej płyty drastycznie i świadomie zniwelowany. Mógłby być zniwelowany jeszcze bardziej, gdyby "Ukryte" zostało włączone do programu w wersji z wymyślonym przez producenta – Marcina Borsa - gwałtownym końcowym cięciem, a piosenkowa piosenkowość piosenki "Srebrna nitka ciszy" była jeszcze bardziej piosenkowa i nośna w wersji z perkusją, bo tak to wstępnie zaplanowano. Nie jest. Wycięte w ostatniej chwili z tego kawałka bębny, blisko nagrane wokale Artura Rojka w "Skazie", klaustrofobiczna końcówka "Klubu filatelistów polskich", soczysty gitarowy łomot w "Ofiarach zapaści teatru telewizji", zadziwiająca instrumentalna koda bez upragnionej powtórki refrenu w "Przypadku Hermana Rotha", nota bene najpiękniejszym od lat utworze Myslovitz, a nawet fabularyzowane tytuły piosenek (domyślam się, że tendencja pozostała po doświadczeniach z projektem No! No! No!) to elementy składowe tłustego znaku zapytania, który po wysłuchaniu tej płyty wypada sobie postawić. Bo nikt nie użyje jej jako muzycznego dodatku do grilla umówionego w grupie nawet najbardziej osłuchanych przyjaciół, nikt nie wpakuje jej do samochodowego odtwarzacza, robiąc sobie milusi efekt "zimnego łokcia" i dociskając gaz w rytm dobrze zbudowanych przebojów, balansujących na cienkiej granicy artystycznego spełnienia i komercyjnej celności. Myslovitz anno domini 2011 to zespół wymagający kilku lub kilkunastu minut refleksji nad generowanym przez siebie – na tej płycie szczególnie intensywnie – smutkiem. W sprawie twórczości tej kapeli zostało już przecież kiedyś trafnie ustalone, że piękno owego smutku nie wyklucza. I odwrotnie. No i niech tak zostanie.
Na koniec słów kilka o bohaterach tych kilkudziesięciu minut. Takim bohaterem jest każdy z muzyków. Rojek szczególnie za tekst do "Przypadku Hermana Rotha". Wojtek Powaga za większość tesktów na albumie. "Lala" za przytaszczoną na sesję nagraniową muzykę do utworu "Art Brut". Jacek Kuderski za to, że gra na swoim basie nie wszystko, co umie zagrać, ale wszystko, co zagrać powinien. Przemek Myszor za literacką kontynuację piosenki "Kraków" ("Ukryte") i (współ)producenckie czuwanie nad całością. Wreszcie producent – Marcin Bors - za dyskretne odcedzenie muzyki Myslovitz z elementów ewidentnych i wcześniej wykutych na blachę patentów. Panowie, ugotowaliście kawał muzy, wciąż bardzo potrzebnej. Z tej ostatniej konstatacji cieszę się chyba najbardziej,
Artur Rojek - lead vocals, guitar
Wojciech (Wojtek) Powaga - guitar
Przemysław (Przemek) Myszor - guitar, keyboards
Jacek Kuderski - bass guitar
Wojciech (Wojtek, "Lala") Kuderski - drums, percussion
Правила, инструкции, FAQ!!!
Торрент  Добавлен [26 мар 2019, 18:52] Скачать торрент Магнет ссылка
Скачать торрент
[ Размер 20.07 КБ / Просмотров 0 ]

Статус
Проверен 
 
Размер  242.15 МБ
Приватный: Нет (DHT включён)
.torrent скачан  0
 


     Отправить личное сообщение
   
Страница 1 из 1
Показать сообщения за:  Поле сортировки  
Начать новую тему Ответить на тему


Сейчас этот форум просматривают: нет зарегистрированных пользователей и гости: 0


Вы не можете начинать темы
Вы не можете отвечать на сообщения
Вы не можете редактировать свои сообщения
Вы не можете удалять свои сообщения
Вы не можете добавлять вложения

Перейти:  
cron