Начать новую тему Ответить на тему
Статистика раздачи
Размер: 408.88 МБ | Добавлен: 26 мар 2019, 19:11 | Скачали: 0
Сидеров: 0  [0 байт/сек]    Личеров: 32  [14.51 КБ/сек]
Пред. тема | След. тема 

Автор
Сообщение

СообщениеДобавлено: 26 мар 2019, 19:11 

Ответить с цитатой 

MODA
Viva i Romantici

Жанр: Pop/Rock
Страна-производитель диска: Italy
Год издания диска: 2011
Издатель (лейбл): Ultrasuoni
Номер по каталогу: ULT110001
Страна: Italy
Аудио кодек: FLAC (*.flac)
Тип рипа: image+.cue
Битрейт аудио: lossless
Продолжительность: 0:55:48
Источник (релизер): рип личного CD
Наличие сканов в содержимом раздачи: да
#7771. Sono Gia' Solo
2. Salvami
3. Tappeto Di Fragole
4. Come Un Pittore
5. Vittima
6. Arrivera [feat.Emma]
7. La Notte
8. Tutto Non E Niente
9. Timida
10. Viva I Romantici
11. L'amore E Un'altra Cosa
12. Mani Inutili
13. Arrivera
14. Mani Inutili (Radio Edit)
15. Urlo E Non Mi Senti (Live Palasharp)
Код:
Exact Audio Copy V0.99 prebeta 5 from 4. May 2009
Отчёт EAC об извлечении, выполненном 21. мая 2011, 17:37
Moda' / Viva i romantici
Дисковод: Optiarc DVD RW AD-7220A   Adapter: 1  ID: 1
Режим чтения                 : Достоверность
Использование точного потока : Да
Отключение кэша аудио        : Да
Использование указателей C2  : Нет
Коррекция смещения при чтении                     : 6
Способность читать области Lead-in и Lead-out     : Нет
Заполнение пропущенных сэмплов тишиной            : Да
Удаление блоков с тишиной в начале и конце        : Нет
При вычислениях CRC использовались нулевые сэмплы : Да
Интерфейс                                         : Установленный внешний ASPI-интерфейс
Выходной формат : Внутренние WAV-операции
Формат сэмплов  : 44.100 Гц; 16 бит; стерео
TOC извлечённого CD
     Трек |   Старт  | Длительность | Начальный сектор | Конечный сектор
    ---------------------------------------------------------------------
       1  |  0:00.00 |    3:22.45   |           0      |      15194
       2  |  3:22.45 |    3:52.05   |       15195      |      32599
       3  |  7:14.50 |    3:11.73   |       32600      |      46997
       4  | 10:26.48 |    3:53.60   |       46998      |      64532
       5  | 14:20.33 |    3:22.33   |       64533      |      79715
       6  | 17:42.66 |    3:33.03   |       79716      |      95693
       7  | 21:15.69 |    3:19.27   |       95694      |     110645
       8  | 24:35.21 |    3:46.43   |      110646      |     127638
       9  | 28:21.64 |    3:42.23   |      127639      |     144311
      10  | 32:04.12 |    4:44.50   |      144312      |     165661
      11  | 36:48.62 |    3:44.33   |      165662      |     182494
      12  | 40:33.20 |    3:42.73   |      182495      |     199217
      13  | 44:16.18 |    3:33.13   |      199218      |     215205
      14  | 47:49.31 |    3:42.46   |      215206      |     231901
      15  | 51:32.02 |    4:16.71   |      231902      |     251172
Характеристики диапазона извлечения и сообщения об ошибках
Выбранный диапазон
     Имя файла C:\Documents and Settings\Администратор\Рабочий стол\Moda' - Viva i romantici.wav
     Пиковый уровень 99.2 %
     Качество диапазона 100.0 %
     CRC теста 609FF7A3
     CRC копии 609FF7A3
     Копирование... OK
Ошибок не произошло
AccurateRip: сводка
Трек  1  точность не определена (достоверность 1)  [4AE0D3B0], AccurateRip вернул [85C863FD]
Трек  2  точность не определена (достоверность 1)  [6B67B361], AccurateRip вернул [4EC759C4]
Трек  3  точность не определена (достоверность 1)  [B2D3E4E0], AccurateRip вернул [3559723B]
Трек  4  точность не определена (достоверность 1)  [F613E7AD], AccurateRip вернул [03185B32]
Трек  5  точность не определена (достоверность 1)  [37383B51], AccurateRip вернул [D290A975]
Трек  6  точность не определена (достоверность 1)  [D30C5342], AccurateRip вернул [6D5EE4A5]
Трек  7  точность не определена (достоверность 1)  [2AE0EC16], AccurateRip вернул [FEFAC8DB]
Трек  8  точность не определена (достоверность 1)  [5F61A646], AccurateRip вернул [763DE9EA]
Трек  9  точность не определена (достоверность 1)  [9FE793F7], AccurateRip вернул [07A8527F]
Трек 10  точность не определена (достоверность 1)  [3043D38D], AccurateRip вернул [F90BD2A0]
Трек 11  точность не определена (достоверность 1)  [EBFD6983], AccurateRip вернул [5A6C52A2]
Трек 12  точность не определена (достоверность 1)  [CAEF6B56], AccurateRip вернул [83FEF5AD]
Трек 13  точность не определена (достоверность 1)  [62F3E1F0], AccurateRip вернул [819885B1]
Трек 14  точность не определена (достоверность 1)  [42A5F2A5], AccurateRip вернул [3E3D6AA8]
Трек 15  точность не определена (достоверность 1)  [760D0E7A], AccurateRip вернул [6AC5E43C]
Ни один трек не прошёл проверки на точность
В вашей базе может быть иной вариант штамповки диска
Конец отчёта
Правила, инструкции, FAQ!!!
Торрент  Добавлен [26 мар 2019, 19:11] Скачать торрент Магнет ссылка
Скачать торрент
[ Размер 16.88 КБ / Просмотров 3 ]

Статус
Проверен 
 
Размер  408.88 МБ
Приватный: Нет (DHT включён)
.torrent скачан  0
 


     Отправить личное сообщение
   
Страница 1 из 1
Показать сообщения за:  Поле сортировки  
Начать новую тему Ответить на тему


Сейчас этот форум просматривают: нет зарегистрированных пользователей и гости: 0


Вы не можете начинать темы
Вы не можете отвечать на сообщения
Вы не можете редактировать свои сообщения
Вы не можете удалять свои сообщения
Вы не можете добавлять вложения

Перейти:  
cron