Начать новую тему Ответить на тему
Статистика раздачи
Размер: 463.64 МБ | Добавлен: 26 мар 2019, 19:11 | Скачали: 0
Сидеров: 0  [0 байт/сек]    Личеров: 18  [0 байт/сек]
Пред. тема | След. тема 

Автор
Сообщение

СообщениеДобавлено: 26 мар 2019, 19:11 

Ответить с цитатой 

Moda / Sala D'Attesa
Жанр: Pop-Rock
Страна-производитель диска: Italy
Год издания: 2008
Издатель (лейбл): Around The Music
Номер по каталогу: 0190162ERE
Страна: Italy
Аудиокодек: FLAC (*.flac)
Тип рипа: image+.cue
Битрейт аудио: lossless
Продолжительность: 59:20:14
Источник (релизер): собственный диск
Наличие сканов в содержимом раздачи: да
Треклист:
01.Saro Sincero
02. Aria
03. L'Ultimo Viaggio
04. Sala D'Attesa
05. Ma Tu Non Passi Mai
06. La Mia Ragazza Ha Detto Che...
07. L'Importante e Che Stanotte No
08. Le Luci Della Notte
09. Ma Quale Domani
10. Tra Le Tue Mani
11.Meschina
12. Scusa Amore
Код:
Exact Audio Copy V1.0 beta 3 from 29. August 2011
EAC extraction logfile from 28. September 2012, 21:13
Modà / Sala D'Attesa
Used drive  : _NEC    DVD_RW ND-3550A   Adapter: 0  ID: 0
Read mode               : Secure
Utilize accurate stream : Yes
Defeat audio cache      : Yes
Make use of C2 pointers : No
Read offset correction                      : 48
Overread into Lead-In and Lead-Out          : No
Fill up missing offset samples with silence : Yes
Delete leading and trailing silent blocks   : No
Null samples used in CRC calculations       : Yes
Used interface                              : Native Win32 interface for Win NT & 2000
Used output format              : User Defined Encoder
Selected bitrate                : 32 kBit/s
Quality                         : High
Add ID3 tag                     : No
Command line compressor         : C:\Program Files\FLAC\FLAC frontend.exe
Additional command line options :  -V -8 -T "Date=%year%" -T "Genre=%genre%" %source%
TOC of the extracted CD
     Track |   Start  |  Length  | Start sector | End sector
    ---------------------------------------------------------
        1  |  0:00.00 |  3:59.27 |         0    |    17951
        2  |  3:59.27 |  3:53.56 |     17952    |    35482
        3  |  7:53.08 |  4:28.64 |     35483    |    55646
        4  | 12:21.72 |  3:29.68 |     55647    |    71389
        5  | 15:51.65 |  4:40.24 |     71390    |    92413
        6  | 20:32.14 |  3:57.29 |     92414    |   110217
        7  | 24:29.43 |  4:01.30 |    110218    |   128322
        8  | 28:30.73 |  4:16.32 |    128323    |   147554
        9  | 32:47.30 |  3:50.23 |    147555    |   164827
       10  | 36:37.53 |  3:52.22 |    164828    |   182249
       11  | 40:30.00 |  3:54.33 |    182250    |   199832
       12  | 44:24.33 | 14:55.41 |    199833    |   266998
Range status and errors
Selected range
     Filename C:\Documents and Settings\ЕВГЕНИЙ.5809E22B51C4444\Мои документы\Моя музыка\Modà - Sala D'Attesa.wav
     Peak level 99.9 %
     Extraction speed 5.0 X
     Range quality 100.0 %
     Test CRC 61AECCAC
     Copy CRC 61AECCAC
     Copy OK
No errors occurred
AccurateRip summary
Track  1  not present in database
Track  2  not present in database
Track  3  not present in database
Track  4  not present in database
Track  5  not present in database
Track  6  not present in database
Track  7  not present in database
Track  8  not present in database
Track  9  not present in database
Track 10  not present in database
Track 11  not present in database
Track 12  not present in database
None of the tracks are present in the AccurateRip database
End of status report
==== Log checksum 52C22B9316DC30BCE0381D33324BB28F71CE8958A7BB4F60A4E8076BE524ACE3 ====
------------------------------------------------------------
Код:
REM GENRE "Pop e Rock Italiano"
REM DATE 2008
REM DISCID A70DE70C
REM COMMENT "ExactAudioCopy v1.0b3"
CATALOG 4029758901625
PERFORMER "Moda"
TITLE "Sala D'Attesa"
FILE "Moda - Sala D'Attesa.flac" WAVE
  TRACK 01 AUDIO
    TITLE "Saro Sincero"
    PERFORMER "Moda"
    ISRC NLG470800015
    INDEX 01 00:00:00
  TRACK 02 AUDIO
    TITLE "Aria"
    PERFORMER "Moda"
    ISRC NLG470800016
    INDEX 00 03:58:59
    INDEX 01 03:59:27
  TRACK 03 AUDIO
    TITLE "L'Ultimo Viaggio"
    PERFORMER "Moda"
    ISRC NLG470800017
    INDEX 00 07:51:55
    INDEX 01 07:53:08
  TRACK 04 AUDIO
    TITLE "Sala D'Attesa"
    PERFORMER "Moda"
    ISRC NLG470800018
    INDEX 01 12:21:72
  TRACK 05 AUDIO
    TITLE "Ma Tu Non Passi Mai"
    PERFORMER "Moda"
    ISRC NLG470800019
    INDEX 00 15:51:55
    INDEX 01 15:51:65
  TRACK 06 AUDIO
    TITLE "La Mia Ragazza Ha Detto Che..."
    PERFORMER "Moda"
    ISRC NLG470800020
    INDEX 00 20:31:62
    INDEX 01 20:32:14
  TRACK 07 AUDIO
    TITLE "L'Importante e Che Stanotte No"
    PERFORMER "Moda"
    ISRC NLG470800021
    INDEX 00 24:27:65
    INDEX 01 24:29:43
  TRACK 08 AUDIO
    TITLE "Le Luci Della Notte"
    PERFORMER "Moda"
    ISRC NLG470800022
    INDEX 01 28:30:73
  TRACK 09 AUDIO
    TITLE "Ma Quale Domani"
    PERFORMER "Moda"
    ISRC NLG470800023
    INDEX 00 32:45:63
    INDEX 01 32:47:30
  TRACK 10 AUDIO
    TITLE "Tra Le Tue Mani"
    PERFORMER "Moda"
    ISRC NLG470800024
    INDEX 00 36:37:36
    INDEX 01 36:37:53
  TRACK 11 AUDIO
    TITLE "Meschina"
    PERFORMER "Moda"
    ISRC NLG470800025
    INDEX 00 40:28:17
    INDEX 01 40:30:00
  TRACK 12 AUDIO
    TITLE "Scusa Amore"
    PERFORMER "Moda"
    ISRC NLG470800026
    INDEX 00 44:22:58
    INDEX 01 44:24:33
Код:
AUDIOCHECKER v2.0 beta (build 457) - by Dester - opdester@freemail.hu
~~~~~~~~~~~~~~~~~~~~~~~~~~~~~~~~~~
-=== НЕ РЕДАКТИРУЙТЕ ЭТОТ ФАЙЛ! ===-
Путь: ...\Моя музыка
1 -=- Moda - Sala D'Attesa.flac -=- CDDA (100%)
139331924
[ ]
Правила, инструкции, FAQ!!!
Торрент  Добавлен [26 мар 2019, 19:11] Скачать торрент Магнет ссылка
Скачать торрент
[ Размер 19.43 КБ / Просмотров 4 ]

Статус
Проверен 
 
Размер  463.64 МБ
Приватный: Нет (DHT включён)
.torrent скачан  0
 


     Отправить личное сообщение
   
Страница 1 из 1
Показать сообщения за:  Поле сортировки  
Начать новую тему Ответить на тему


Сейчас этот форум просматривают: нет зарегистрированных пользователей и гости: 0


Вы не можете начинать темы
Вы не можете отвечать на сообщения
Вы не можете редактировать свои сообщения
Вы не можете удалять свои сообщения
Вы не можете добавлять вложения

Перейти:  
cron