Начать новую тему Ответить на тему
Статистика раздачи
Размер: 454.07 МБ | Добавлен: 26 мар 2019, 20:09 | Скачали: 0
Сидеров: 0  [0 байт/сек]    Личеров: 13  [0 байт/сек]
Пред. тема | След. тема 

Автор
Сообщение

СообщениеДобавлено: 26 мар 2019, 20:09 

Ответить с цитатой 

Moda / Gioia
Жанр: Pop-Rock
Страна-производитель диска: Italy
Год издания: 2013
Издатель (лейбл): Ultrasuoni S.r.l.
Номер по каталогу: ULT130001
Страна: Italy
Аудиокодек: FLAC (*.flac)
Тип рипа: image+.cue
Битрейт аудио: lossless
Продолжительность: 0:44:19
Источник (релизер): Собственный диск
Наличие сканов в содержимом раздачи: да
Треклист:
01 Gioia 3:47
02 Quando arrivano i suoi occhi 3:30
03 Bellissimo 3:33
04 Dove e sempre sole 3:48
05 Come in un film 3:53
06 Non e mai abbastanza 3:48
07 Dimmelo 3:27
08 Paura di volare 4:34
09 Come l'acqua dento il mare 3:21
10 La sua bellezza 3:21
11 Se si potesse non morire 4:08
12 A Laura 3:04
Код:
Exact Audio Copy V1.0 beta 3 from 29. August 2011
EAC extraction logfile from 25. May 2013, 23:06
Modа / Gioia
Used drive  : _NEC    DVD_RW ND-3550A   Adapter: 0  ID: 0
Read mode               : Secure
Utilize accurate stream : Yes
Defeat audio cache      : Yes
Make use of C2 pointers : No
Read offset correction                      : 48
Overread into Lead-In and Lead-Out          : No
Fill up missing offset samples with silence : Yes
Delete leading and trailing silent blocks   : No
Null samples used in CRC calculations       : Yes
Used interface                              : Native Win32 interface for Win NT & 2000
Used output format              : User Defined Encoder
Selected bitrate                : 32 kBit/s
Quality                         : High
Add ID3 tag                     : No
Command line compressor         : C:\Program Files\FLAC\FLAC frontend.exe
Additional command line options :  -V -8 -T "Date=%year%" -T "Genre=%genre%" %source%
TOC of the extracted CD
     Track |   Start  |  Length  | Start sector | End sector
    ---------------------------------------------------------
        1  |  0:00.00 |  3:47.06 |         0    |    17030
        2  |  3:47.06 |  3:30.28 |     17031    |    32808
        3  |  7:17.34 |  3:33.70 |     32809    |    48853
        4  | 10:51.29 |  3:48.38 |     48854    |    65991
        5  | 14:39.67 |  3:53.27 |     65992    |    83493
        6  | 18:33.19 |  3:48.03 |     83494    |   100596
        7  | 22:21.22 |  3:27.29 |    100597    |   116150
        8  | 25:48.51 |  4:34.18 |    116151    |   136718
        9  | 30:22.69 |  3:21.15 |    136719    |   151808
       10  | 33:44.09 |  3:21.52 |    151809    |   166935
       11  | 37:05.61 |  4:08.55 |    166936    |   185590
       12  | 41:14.41 |  3:04.71 |    185591    |   199461
Range status and errors
Selected range
     Filename C:\Documents and Settings\ЕВГЕНИЙ.5809E22B51C4444\Мои документы\Моя музыка\Modа - Gioia.wav
     Peak level 98.4 %
     Extraction speed 4.7 X
     Range quality 99.9 %
     Test CRC 23D79022
     Copy CRC 23D79022
     Copy OK
No errors occurred
AccurateRip summary
Track  1  not present in database
Track  2  not present in database
Track  3  not present in database
Track  4  not present in database
Track  5  not present in database
Track  6  not present in database
Track  7  not present in database
Track  8  not present in database
Track  9  not present in database
Track 10  not present in database
Track 11  not present in database
Track 12  not present in database
None of the tracks are present in the AccurateRip database
End of status report
==== Log checksum 3E5D1C8358043716C7211D6488A491C7E20D03A1E47A952BBA01FC499A9E870E ====
Код:
REM GENRE Pop-Rock
REM DATE 2013
REM DISCID 950A630C
REM COMMENT "ExactAudioCopy v1.0b3"
CATALOG 8033954532534
PERFORMER "Modа"
TITLE "Gioia"
FILE "Modа - Gioia.flac" WAVE
  TRACK 01 AUDIO
    TITLE "Gioia"
    PERFORMER "Modа"
    ISRC ITAP61200011
    INDEX 01 00:00:00
  TRACK 02 AUDIO
    TITLE "Quando arrivano i suoi occhi"
    PERFORMER "Modа"
    ISRC ITAP61200012
    INDEX 00 02:53:21
    INDEX 01 03:47:06
  TRACK 03 AUDIO
    TITLE "Bellissimo"
    PERFORMER "Modа"
    ISRC ITAP61200013
    INDEX 01 07:17:34
  TRACK 04 AUDIO
    TITLE "Dove и sempre sole"
    PERFORMER "Modа"
    ISRC ITAP61200014
    INDEX 01 10:51:29
  TRACK 05 AUDIO
    TITLE "Come in un film"
    PERFORMER "Modа"
    ISRC ITAP61200015
    INDEX 01 14:39:67
  TRACK 06 AUDIO
    TITLE "Non и mai abbastanza"
    PERFORMER "Modа"
    ISRC ITAP61200016
    INDEX 01 18:33:19
  TRACK 07 AUDIO
    TITLE "Dimmelo"
    PERFORMER "Modа"
    ISRC ITAP61200017
    INDEX 01 22:21:22
  TRACK 08 AUDIO
    TITLE "Paura di volare"
    PERFORMER "Modа"
    ISRC ITAP61200018
    INDEX 01 25:48:51
  TRACK 09 AUDIO
    TITLE "Come l'acqua dentro il mare"
    PERFORMER "Modа"
    ISRC ITAP61200019
    INDEX 01 30:22:69
  TRACK 10 AUDIO
    TITLE "La sua bellezza"
    PERFORMER "Modа"
    ISRC ITAP61200020
    INDEX 01 33:44:09
  TRACK 11 AUDIO
    TITLE "Se si potesse non morire"
    PERFORMER "Modа"
    ISRC ITAP61200021
    INDEX 01 37:05:61
  TRACK 12 AUDIO
    TITLE "A Laura"
    PERFORMER "Modа"
    ISRC ITAP61200022
    INDEX 01 41:14:41
Код:
AUDIOCHECKER v2.0 beta (build 457) - by Dester - opdester@freemail.hu
~~~~~~~~~~~~~~~~~~~~~~~~~~~~~~~~~~
-=== НЕ РЕДАКТИРУЙТЕ ЭТОТ ФАЙЛ! ===-
Путь: ...\Моя музыка
1 -=- Modа - Gioia.flac -=- CDDA (100%)
227835684
DVD: диск DVD в раздаче http://rutracker.org/forum/viewtopic.php?t=4431214
Правила, инструкции, FAQ!!!
Торрент  Добавлен [26 мар 2019, 20:09] Скачать торрент Магнет ссылка
Скачать торрент
[ Размер 19.18 КБ / Просмотров 5 ]

Статус
Проверен 
 
Размер  454.07 МБ
Приватный: Нет (DHT включён)
.torrent скачан  0
 


     Отправить личное сообщение
   
Страница 1 из 1
Показать сообщения за:  Поле сортировки  
Начать новую тему Ответить на тему


Сейчас этот форум просматривают: нет зарегистрированных пользователей и гости: 0


Вы не можете начинать темы
Вы не можете отвечать на сообщения
Вы не можете редактировать свои сообщения
Вы не можете удалять свои сообщения
Вы не можете добавлять вложения

Перейти:  
cron