Начать новую тему Ответить на тему
Статистика раздачи
Размер: 355.76 МБ | Добавлен: 26 мар 2019, 20:05 | Скачали: 1
Сидеров: 9  [0 байт/сек]    Личеров: 0  [0 байт/сек]
Пред. тема | След. тема 

Автор
Сообщение

СообщениеДобавлено: 26 мар 2019, 20:05 

Ответить с цитатой 

Milow - Milow
Жанр: Acoustic / Pop-Rock
Год выпуска диска: 2009
Производитель диска: Belgium
Аудио кодек: FLAC
Тип рипа: tracks+сue
Битрейт аудио: lossless
Продолжительность:58.16
Трэклист:
01. Ayo Technology (3:34)
02. You Don't Know (2:47)
03. One Of It (3:07)
04. Out Of My Hands (3:30)
05. Canada (4:52)
06. The Ride (3:08)
07. Stephanie (4:07)
08. Coming Of Age (4:01)
09. The Priest (6:57)
10. House By The Creek (4:19)
11. Dreamers And Renegades (2:48)
12. Herald Of Free Enterprise (5:01)
13. Darkness Ahead And Behind (3:52)
14. Launching Ships (2:48)
15. Born In The Eighties (Bonus Track) (4:22)
X Lossless Decoder version 20090320 (105.1)
XLD extraction logfile from 2009-05-15 00:30:22 +0200
Milow / Milow
Used drive : MATSHITA DVD-R UJ-857D (revision KBVB)
Use cdparanoia mode : YES (CDParanoia III 10.2 engine)
Disable audio cache : OK for the drive with cache less than 2750KB
Make use of C2 pointers : NO
Read offset correction : 102
Max retry count : 100
TOC of the extracted CD
Track | Start | Length | Start sector | End sector
---------------------------------------------------------
1 | 00:00:00 | 03:33:48 | 0 | 16022
2 | 03:33:48 | 02:47:19 | 16023 | 28566
3 | 06:20:67 | 03:07:01 | 28567 | 42592
4 | 09:27:68 | 03:30:30 | 42593 | 58372
5 | 12:58:23 | 04:51:51 | 58373 | 80248
6 | 17:49:74 | 03:07:73 | 80249 | 94346
7 | 20:57:72 | 04:06:47 | 94347 | 112843
8 | 25:04:44 | 04:01:02 | 112844 | 130920
9 | 29:05:46 | 06:57:34 | 130921 | 162229
10 | 36:03:05 | 04:19:28 | 162230 | 181682
11 | 40:22:33 | 02:47:70 | 181683 | 194277
12 | 43:10:28 | 05:00:59 | 194278 | 216836
13 | 48:11:12 | 03:51:41 | 216837 | 234202
14 | 52:02:53 | 02:48:13 | 234203 | 246815
15 | 54:50:66 | 04:21:40 | 246816 | 266430
Track 01
Filename : /XLD/01 - Ayo Technology.flac
CRC32 hash (test run) : D9B1E76B
CRC32 hash : D9B1E76B
CRC32 hash (skip zero) : CE06D478
AccurateRip signature : 73422E94
->Track not present in AccurateRip database.
Statistics
Read error : 0
Skipped (treated as error) : 0
Edge jitter error (maybe fixed) : 0
Atom jitter error (maybe fixed) : 0
Drift error (maybe fixed) : 0
Dropped bytes error (maybe fixed) : 0
Duplicated bytes error (maybe fixed) : 0
Inconsistency in error sectors : 0
Track 02
Filename : /XLD/02 - You Don't Know.flac
CRC32 hash (test run) : F87DABD0
CRC32 hash : F87DABD0
CRC32 hash (skip zero) : 1F9B4C8A
AccurateRip signature : 287C96C3
->Track not present in AccurateRip database.
Statistics
Read error : 0
Skipped (treated as error) : 0
Edge jitter error (maybe fixed) : 0
Atom jitter error (maybe fixed) : 0
Drift error (maybe fixed) : 0
Dropped bytes error (maybe fixed) : 0
Duplicated bytes error (maybe fixed) : 0
Inconsistency in error sectors : 0
Track 03
Filename : /XLD/03 - One Of It.flac
CRC32 hash (test run) : 0D76D4D4
CRC32 hash : 0D76D4D4
CRC32 hash (skip zero) : 62D36E7C
AccurateRip signature : DC525A1E
->Track not present in AccurateRip database.
Statistics
Read error : 0
Skipped (treated as error) : 0
Edge jitter error (maybe fixed) : 0
Atom jitter error (maybe fixed) : 0
Drift error (maybe fixed) : 0
Dropped bytes error (maybe fixed) : 0
Duplicated bytes error (maybe fixed) : 0
Inconsistency in error sectors : 0
Track 04
Filename : /XLD/04 - Out Of My Hands.flac
CRC32 hash (test run) : 7CF20F45
CRC32 hash : 7CF20F45
CRC32 hash (skip zero) : B2A32926
AccurateRip signature : 3AD54D9F
->Track not present in AccurateRip database.
Statistics
Read error : 0
Skipped (treated as error) : 0
Edge jitter error (maybe fixed) : 0
Atom jitter error (maybe fixed) : 0
Drift error (maybe fixed) : 0
Dropped bytes error (maybe fixed) : 0
Duplicated bytes error (maybe fixed) : 0
Inconsistency in error sectors : 0
Track 05
Filename : /XLD/05 - Canada.flac
CRC32 hash (test run) : 80A1F019
CRC32 hash : 80A1F019
CRC32 hash (skip zero) : 31AFD871
AccurateRip signature : 2B5E85E2
->Track not present in AccurateRip database.
Statistics
Read error : 0
Skipped (treated as error) : 0
Edge jitter error (maybe fixed) : 0
Atom jitter error (maybe fixed) : 0
Drift error (maybe fixed) : 0
Dropped bytes error (maybe fixed) : 0
Duplicated bytes error (maybe fixed) : 0
Inconsistency in error sectors : 0
Track 06
Filename : /XLD/06 - The Ride.flac
CRC32 hash (test run) : 2022508C
CRC32 hash : 2022508C
CRC32 hash (skip zero) : 92D98E13
AccurateRip signature : 799A13A0
->Track not present in AccurateRip database.
Statistics
Read error : 0
Skipped (treated as error) : 0
Edge jitter error (maybe fixed) : 0
Atom jitter error (maybe fixed) : 0
Drift error (maybe fixed) : 0
Dropped bytes error (maybe fixed) : 0
Duplicated bytes error (maybe fixed) : 0
Inconsistency in error sectors : 0
Track 07
Filename : /XLD/07 - Stephanie.flac
CRC32 hash (test run) : C7C257A0
CRC32 hash : C7C257A0
CRC32 hash (skip zero) : 41DAAFEC
AccurateRip signature : 9E05367B
->Track not present in AccurateRip database.
Statistics
Read error : 0
Skipped (treated as error) : 0
Edge jitter error (maybe fixed) : 0
Atom jitter error (maybe fixed) : 0
Drift error (maybe fixed) : 0
Dropped bytes error (maybe fixed) : 0
Duplicated bytes error (maybe fixed) : 0
Inconsistency in error sectors : 0
Track 08
Filename : /XLD/08 - Coming Of Age.flac
CRC32 hash (test run) : 25DF9934
CRC32 hash : 25DF9934
CRC32 hash (skip zero) : F94D47E5
AccurateRip signature : BF192547
->Track not present in AccurateRip database.
Statistics
Read error : 0
Skipped (treated as error) : 0
Edge jitter error (maybe fixed) : 0
Atom jitter error (maybe fixed) : 0
Drift error (maybe fixed) : 0
Dropped bytes error (maybe fixed) : 0
Duplicated bytes error (maybe fixed) : 0
Inconsistency in error sectors : 0
Track 09
Filename : /XLD/09 - The Priest .flac
CRC32 hash (test run) : D36A07D1
CRC32 hash : D36A07D1
CRC32 hash (skip zero) : 6E82D40A
AccurateRip signature : FC8140C6
->Track not present in AccurateRip database.
Statistics
Read error : 0
Skipped (treated as error) : 0
Edge jitter error (maybe fixed) : 0
Atom jitter error (maybe fixed) : 0
Drift error (maybe fixed) : 0
Dropped bytes error (maybe fixed) : 0
Duplicated bytes error (maybe fixed) : 0
Inconsistency in error sectors : 0
Track 10
Filename : /XLD/10 - House By The Creek.flac
CRC32 hash (test run) : F80A8AE8
CRC32 hash : F80A8AE8
CRC32 hash (skip zero) : E42FE5AD
AccurateRip signature : 251D8465
->Track not present in AccurateRip database.
Statistics
Read error : 0
Skipped (treated as error) : 0
Edge jitter error (maybe fixed) : 0
Atom jitter error (maybe fixed) : 0
Drift error (maybe fixed) : 0
Dropped bytes error (maybe fixed) : 0
Duplicated bytes error (maybe fixed) : 0
Inconsistency in error sectors : 0
Track 11
Filename : /XLD/11 - Dreamers And Renegades.flac
CRC32 hash (test run) : 90B555E9
CRC32 hash : 90B555E9
CRC32 hash (skip zero) : 7F79174C
AccurateRip signature : A5AA399D
->Track not present in AccurateRip database.
Statistics
Read error : 0
Skipped (treated as error) : 0
Edge jitter error (maybe fixed) : 0
Atom jitter error (maybe fixed) : 0
Drift error (maybe fixed) : 0
Dropped bytes error (maybe fixed) : 0
Duplicated bytes error (maybe fixed) : 0
Inconsistency in error sectors : 0
Track 12
Filename : /XLD/12 - Herald Of Free Enterprise.flac
CRC32 hash (test run) : 52070BFF
CRC32 hash : 52070BFF
CRC32 hash (skip zero) : 8E34E25C
AccurateRip signature : 6DF7DFAE
->Track not present in AccurateRip database.
Statistics
Read error : 0
Skipped (treated as error) : 0
Edge jitter error (maybe fixed) : 0
Atom jitter error (maybe fixed) : 0
Drift error (maybe fixed) : 0
Dropped bytes error (maybe fixed) : 0
Duplicated bytes error (maybe fixed) : 0
Inconsistency in error sectors : 0
Track 13
Filename : /XLD/13 - Darkness Ahead And Behind.flac
CRC32 hash (test run) : A4356321
CRC32 hash : A4356321
CRC32 hash (skip zero) : 55D4D783
AccurateRip signature : A1201625
->Track not present in AccurateRip database.
Statistics
Read error : 0
Skipped (treated as error) : 0
Edge jitter error (maybe fixed) : 0
Atom jitter error (maybe fixed) : 0
Drift error (maybe fixed) : 0
Dropped bytes error (maybe fixed) : 0
Duplicated bytes error (maybe fixed) : 0
Inconsistency in error sectors : 0
Track 14
Filename : /XLD/14 - Launching Chips.flac
CRC32 hash (test run) : AE111A19
CRC32 hash : AE111A19
CRC32 hash (skip zero) : E8CFF26C
AccurateRip signature : 6C5DDFA6
->Track not present in AccurateRip database.
Statistics
Read error : 0
Skipped (treated as error) : 0
Edge jitter error (maybe fixed) : 0
Atom jitter error (maybe fixed) : 0
Drift error (maybe fixed) : 0
Dropped bytes error (maybe fixed) : 0
Duplicated bytes error (maybe fixed) : 0
Inconsistency in error sectors : 0
Track 15
Filename : /XLD/15 - Born In The Eighties .flac
CRC32 hash (test run) : 4454A3E7
CRC32 hash : 4454A3E7
CRC32 hash (skip zero) : 587AE3E3
AccurateRip signature : A75C7B21
->Track not present in AccurateRip database.
Statistics
Read error : 0
Skipped (treated as error) : 0
Edge jitter error (maybe fixed) : 0
Atom jitter error (maybe fixed) : 0
Drift error (maybe fixed) : 0
Dropped bytes error (maybe fixed) : 0
Duplicated bytes error (maybe fixed) : 0
Inconsistency in error sectors : 0
No errors occurred
End of status report
Не стесняемся,нажимаем кнопочку спасибо
Правила, инструкции, FAQ!!!
Торрент  Добавлен [26 мар 2019, 20:05] Скачать торрент Магнет ссылка
Скачать торрент
[ Размер 15.28 КБ / Просмотров 13 ]

Статус
Проверен 
 
Размер  355.76 МБ
Приватный: Нет (DHT включён)
.torrent скачан  1
 


     Отправить личное сообщение
   
Страница 1 из 1
Показать сообщения за:  Поле сортировки  
Начать новую тему Ответить на тему


Сейчас этот форум просматривают: нет зарегистрированных пользователей и гости: 0


Вы не можете начинать темы
Вы не можете отвечать на сообщения
Вы не можете редактировать свои сообщения
Вы не можете удалять свои сообщения
Вы не можете добавлять вложения

Перейти:  
cron