Начать новую тему Ответить на тему
Статистика раздачи
Размер: 717.95 МБ | Добавлен: 26 мар 2019, 20:52 | Скачали: 2
Сидеров: 1  [0 байт/сек]    Личеров: 0  [0 байт/сек]
Пред. тема | След. тема 

Автор
Сообщение

СообщениеДобавлено: 26 мар 2019, 20:52 

Ответить с цитатой 

Michael McDonald - 2 альбома (Take It To Heart - 1990 / Blink Of an Eye - 1993 )
Жанр: soft rock
Страна-производитель диска: Germany
Год издания диска: 1990-1993
Издатель (лейбл): Reprise record
Аудиокодек: FLAC (*.flac)
Тип рипа: image+.cue
Битрейт аудио: lossless
Продолжительность: 111min 10sec
Источник (релизер): CD
Наличие сканов в содержимом раздачи: да
http://www.allmusic.com/artist/michael-mcdonald-p4870
#777Треклист
01 All We Got
02 Get the Word Started
03 Love Can Break Your Heart
04 Take It to Heart
05 Tear It Up
06 Lonely Talk
07 Searchin' for Understanding
08 Homeboy
09 No Amount of Reason
10 One Step Away
11 You Show Me
Код:
Exact Audio Copy V1.0 beta 2 from 29. April 2011
Отчёт EAC об извлечении, выполненном 11. марта 2012, 14:28
Michael McDonald / Take It To Heart
Дисковод: Optiarc DVD RW AD-7260S   Adapter: 0  ID: 1
Режим чтения                 : Достоверность
Использование точного потока : Да
Отключение кэша аудио        : Да
Использование указателей C2  : Нет
Коррекция смещения при чтении                     : 48
Способность читать области Lead-in и Lead-out     : Нет
Заполнение пропущенных сэмплов тишиной            : Да
Удаление блоков с тишиной в начале и конце        : Нет
При вычислениях CRC использовались нулевые сэмплы : Да
Интерфейс                                         : Встроенный Win32-интерфейс для Win NT/2000
Выходной формат          : Пользовательский кодировщик
Выбранный битрейт        : 128 kBit/s
Качество                 : Высокий
Добавление ID3-тега      : Нет
Утилита сжатия           : C:\Program Files\Exact Audio Copy\FLAC\FLAC.EXE
Дополнительные параметры : -6 -V -T "ARTIST=%artist%" -T "TITLE=%title%" -T "ALBUM=%albumtitle%" -T "DATE=%year%" -T "TRACKNUMBER=%tracknr%" -T "GENRE=%genre%" -T "COMMENT=%comment%" -T "BAND=%albuminterpret%" -T "COMPOSER=%composer%" %haslyrics%--tag-from-
TOC извлечённого CD
     Трек |   Старт  | Длительность | Начальный сектор | Конечный сектор
    ---------------------------------------------------------------------
       1  |  0:00.00 |    5:47.05   |           0      |      26029
       2  |  5:47.05 |    5:42.00   |       26030      |      51679
       3  | 11:29.05 |    4:56.10   |       51680      |      73889
       4  | 16:25.15 |    5:58.05   |       73890      |     100744
       5  | 22:23.20 |    4:27.60   |      100745      |     120829
       6  | 26:51.05 |    4:42.02   |      120830      |     141981
       7  | 31:33.07 |    3:45.03   |      141982      |     158859
       8  | 35:18.10 |    4:38.05   |      158860      |     179714
       9  | 39:56.15 |    4:39.40   |      179715      |     200679
      10  | 44:35.55 |    4:14.62   |      200680      |     219791
      11  | 48:50.42 |    5:02.53   |      219792      |     242494
Характеристики диапазона извлечения и сообщения об ошибках
Выбранный диапазон
     Имя файла D:\FLAC\Michael McDonald - Take It To Heart.wav
     Пиковый уровень 100.0 %
     Скорость извлечения 3.9 X
     Качество диапазона 100.0 %
     CRC теста 14B1943D
     CRC копии 14B1943D
     Копирование... OK
Ошибок не произошло
Конец отчёта
==== Контрольная сумма отчёта EAC6965D0620FDC4410A7DFCC25D01384477B6B031DC955F3B5203C6AFC5A7F3 ====
#77701 I Stand for You
02 East of Eden
03 More to Us Than That
04 I Want You
05 No More Prayin'
06 Matters of the Heart
07 Hey Girl
08 What Makes a Man Hold On
09 Blink of an Eye
10 Everlasting
11 For a Child
Код:
Exact Audio Copy V1.0 beta 2 from 29. April 2011
Отчёт EAC об извлечении, выполненном 11. марта 2012, 12:55
Michael McDonald / Blink Of An Eye
Дисковод: Optiarc DVD RW AD-7260S   Adapter: 0  ID: 1
Режим чтения                 : Достоверность
Использование точного потока : Да
Отключение кэша аудио        : Да
Использование указателей C2  : Нет
Коррекция смещения при чтении                     : 48
Способность читать области Lead-in и Lead-out     : Нет
Заполнение пропущенных сэмплов тишиной            : Да
Удаление блоков с тишиной в начале и конце        : Нет
При вычислениях CRC использовались нулевые сэмплы : Да
Интерфейс                                         : Встроенный Win32-интерфейс для Win NT/2000
Выходной формат          : Пользовательский кодировщик
Выбранный битрейт        : 128 kBit/s
Качество                 : Высокий
Добавление ID3-тега      : Нет
Утилита сжатия           : C:\Program Files\Exact Audio Copy\FLAC\FLAC.EXE
Дополнительные параметры : -6 -V -T "ARTIST=%artist%" -T "TITLE=%title%" -T "ALBUM=%albumtitle%" -T "DATE=%year%" -T "TRACKNUMBER=%tracknr%" -T "GENRE=%genre%" -T "COMMENT=%comment%" -T "BAND=%albuminterpret%" -T "COMPOSER=%composer%" %haslyrics%--tag-from-
TOC извлечённого CD
     Трек |   Старт  | Длительность | Начальный сектор | Конечный сектор
    ---------------------------------------------------------------------
       1  |  0:00.00 |    4:24.17   |           0      |      19816
       2  |  4:24.17 |    5:29.08   |       19817      |      44499
       3  |  9:53.25 |    5:26.30   |       44500      |      68979
       4  | 15:19.55 |    4:16.57   |       68980      |      88236
       5  | 19:36.37 |    6:20.25   |       88237      |     116761
       6  | 25:56.62 |    4:29.20   |      116762      |     136956
       7  | 30:26.07 |    5:56.20   |      136957      |     163676
       8  | 36:22.27 |    4:19.38   |      163677      |     183139
       9  | 40:41.65 |    4:56.00   |      183140      |     205339
      10  | 45:37.65 |    4:31.30   |      205340      |     225694
      11  | 50:09.20 |    7:50.72   |      225695      |     261016
Характеристики диапазона извлечения и сообщения об ошибках
Выбранный диапазон
     Имя файла D:\FLAC\Michael McDonald - Blink Of An Eye.wav
     Пиковый уровень 99.8 %
     Скорость извлечения 4.1 X
     Качество диапазона 100.0 %
     CRC теста 69B71431
     CRC копии 69B71431
     Копирование... OK
Ошибок не произошло
Конец отчёта
==== Контрольная сумма отчёта 31EAF1325D6ADD73E5E08C1ACFBC744630329DF8D93F9C0E4E339B612A2D3077 ====
Правила, инструкции, FAQ!!!
Торрент  Добавлен [26 мар 2019, 20:52] Скачать торрент Магнет ссылка
Скачать торрент
[ Размер 16.13 КБ / Просмотров 4 ]

Статус
Проверен 
 
Размер  717.95 МБ
Приватный: Нет (DHT включён)
.torrent скачан  2
 


     Отправить личное сообщение
   
Страница 1 из 1
Показать сообщения за:  Поле сортировки  
Начать новую тему Ответить на тему


Сейчас этот форум просматривают: нет зарегистрированных пользователей и гости: 0


Вы не можете начинать темы
Вы не можете отвечать на сообщения
Вы не можете редактировать свои сообщения
Вы не можете удалять свои сообщения
Вы не можете добавлять вложения

Перейти:  
cron