Начать новую тему Ответить на тему
Статистика раздачи
Размер: 84.08 МБ | Добавлен: 26 мар 2019, 20:47 | Скачали: 0
Сидеров: 0  [0 байт/сек]    Личеров: 0  [0 байт/сек]
Пред. тема | След. тема 

Автор
Сообщение

СообщениеДобавлено: 26 мар 2019, 20:47 

Ответить с цитатой 

The La's. Way Out
Жанр: pop-rock, merseybeat
Носитель: CDS
Страна-производитель диска: United Kindgom
Год издания: 1987
Издатель (лейбл): Go! Discs
Номер по каталогу: 888 924-2
Страна: United Kindgom
Аудиокодек: FLAC (*.flac)
Тип рипа: tracks+.cue
Битрейт аудио: lossless
Продолжительность: 00:13:32
Источник (релизер): what
Наличие сканов в содержимом раздачи: да
Треклист:
01. Way Out
02. Knock Me Down
03. Endless
04. Liberty Ship (Freedom Song)
Код:
Exact Audio Copy V1.0 beta 3 from 29. August 2011
EAC extraction logfile from 20. March 2013, 16:05
The La's / Way Out
Used drive  : BENQ    CDRW 5232X   Adapter: 2  ID: 0
Read mode               : Secure
Utilize accurate stream : Yes
Defeat audio cache      : Yes
Make use of C2 pointers : No
Read offset correction                      : 738
Overread into Lead-In and Lead-Out          : No
Fill up missing offset samples with silence : Yes
Delete leading and trailing silent blocks   : No
Null samples used in CRC calculations       : Yes
Used interface                              : Native Win32 interface for Win NT & 2000
Gap handling                                : Appended to previous track
Used output format              : User Defined Encoder
Selected bitrate                : 1024 kBit/s
Quality                         : High
Add ID3 tag                     : No
Command line compressor         : C:\Program Files (x86)\Flac\flac.exe
Additional command line options : -8 -V -T "ARTIST=%artist%" -T "TITLE=%title%" -T "ALBUM=%albumtitle%" -T "DATE=%year%" -T "TRACKNUMBER=%tracknr%" -T "GENRE=%genre%" -T "PERFORMER=%albuminterpret%" -T "COMPOSER=%composer%" %haslyrics%--tag-from-file=LYRICS="%lyricsfile%"%haslyrics% -T "ALBUMARTIST=%albumartist%" -T "DISCNUMBER=%cdnumber%" -T "TOTALDISCS=%totalcds%" -T "TOTALTRACKS=%numtracks%" -T "COMMENT=%comment%" %source% -o %dest%
TOC of the extracted CD
     Track |   Start  |  Length  | Start sector | End sector
    ---------------------------------------------------------
        1  |  0:00.33 |  2:42.37 |        33    |    12219
        2  |  2:42.70 |  3:14.38 |     12220    |    26807
        3  |  5:57.33 |  3:14.50 |     26808    |    41407
        4  |  9:12.08 |  4:14.25 |     41408    |    60482
Track  1
     Filename E:\MP3\EAC\La's, The - Way Out (FLAC)\01 Way Out.wav
     Pre-gap length  0:00:02.44
     Peak level 99.8 %
     Extraction speed 4.5 X
     Track quality 100.0 %
     Test CRC A99C986A
     Copy CRC A99C986A
     Track not present in AccurateRip database
     Copy OK
Track  2
     Filename E:\MP3\EAC\La's, The - Way Out (FLAC)\02 Knock Me Down.wav
     Peak level 92.7 %
     Extraction speed 4.4 X
     Track quality 99.9 %
     Test CRC 6AC29775
     Copy CRC 6AC29775
     Track not present in AccurateRip database
     Copy OK
Track  3
     Filename E:\MP3\EAC\La's, The - Way Out (FLAC)\03 Endless.wav
     Peak level 71.4 %
     Extraction speed 5.2 X
     Track quality 100.0 %
     Test CRC 78493256
     Copy CRC 78493256
     Track not present in AccurateRip database
     Copy OK
Track  4
     Filename E:\MP3\EAC\La's, The - Way Out (FLAC)\04 Liberty Ship (Freedom Song).wav
     Pre-gap length  0:00:06.84
     Peak level 85.4 %
     Extraction speed 4.6 X
     Track quality 99.9 %
     Test CRC 575443B1
     Copy CRC 575443B1
     Track not present in AccurateRip database
     Copy OK
None of the tracks are present in the AccurateRip database
No errors occurred
End of status report
==== Log checksum 460DEFA100A51903B81E7688A624212B2DB92BE515497BB0759F3A6AF7209F46 ====
Код:
REM GENRE Indie
REM DATE 1987
REM DISCID 2C032604
REM COMMENT "ExactAudioCopy v1.0b3"
PERFORMER "The La's"
TITLE "Way Out"
FILE "01 Way Out.wav" WAVE
  TRACK 01 AUDIO
    TITLE "Way Out"
    PERFORMER "The La's"
    PREGAP 00:00:33
    INDEX 01 00:00:00
FILE "02 Knock Me Down.wav" WAVE
  TRACK 02 AUDIO
    TITLE "Knock Me Down"
    PERFORMER "The La's"
    INDEX 01 00:00:00
FILE "03 Endless.wav" WAVE
  TRACK 03 AUDIO
    TITLE "Endless"
    PERFORMER "The La's"
    INDEX 01 00:00:00
  TRACK 04 AUDIO
    TITLE "Liberty Ship (Freedom Song)"
    PERFORMER "The La's"
    INDEX 00 03:07:62
FILE "04 Liberty Ship (Freedom Song).wav" WAVE
    INDEX 01 00:00:00
Bass – John Power
Drums – John Timson
Guitar – Lee Mavers
Vocals – John Power, Lee Mavers
Правила, инструкции, FAQ!!!
Торрент  Добавлен [26 мар 2019, 20:47] Скачать торрент Магнет ссылка
Скачать торрент
[ Размер 14.51 КБ / Просмотров 0 ]

Статус
Проверен 
 
Размер  84.08 МБ
Приватный: Нет (DHT включён)
.torrent скачан  0
 


     Отправить личное сообщение
   
Страница 1 из 1
Показать сообщения за:  Поле сортировки  
Начать новую тему Ответить на тему


Сейчас этот форум просматривают: нет зарегистрированных пользователей и гости: 0


Вы не можете начинать темы
Вы не можете отвечать на сообщения
Вы не можете редактировать свои сообщения
Вы не можете удалять свои сообщения
Вы не можете добавлять вложения

Перейти:  
cron