Начать новую тему Ответить на тему
Статистика раздачи
Размер: 338.86 МБ | Добавлен: 26 мар 2019, 19:53 | Скачали: 0
Сидеров: 0  [0 байт/сек]    Личеров: 0  [0 байт/сек]
Пред. тема | След. тема 

Автор
Сообщение

СообщениеДобавлено: 26 мар 2019, 19:53 

Ответить с цитатой 

Media Line Road - Sagittarius Passing Through
Жанр: Pop-Rock
Год издания диска: 2009
Издатель (лейбл): It's the Arts Recordings
Страна: UK
Аудиокодек: FLAC (*.flac)
Тип рипа: image+.cue
Битрейт аудио: lossless
Продолжительность: 01:01:46
Источник (релизер): Sket4er
Наличие сканов в содержимом раздачи: да
Треклист:
01. Old Belle's Bop 03:37
02. Shaking Hands With Friends 03:47
03. It's Kinda Creepy, Baby 04:11
04. We're Not From Here 06:41
05. This End 06:28
06. What In The World 04:15
07. I've Been Trying 02:29
08. Prayer 04:03
09. Lovell Avenue 03:43
10. Who the Hell, Really? 04:55
11. Good To Have You Back Again 04:15
12. Diamond's Dad 06:16
13. Beautiful Daughter 03:45
14. Fly 03:21
Код:
Exact Audio Copy V1.1 from 23. June 2015
EAC extraction logfile from 23. September 2016, 13:57
Sagittarius Passing Through / Media Line Road
Used drive  : TSSTcorpCDDVDW SH-224DB   Adapter: 1  ID: 0
Read mode               : Secure
Utilize accurate stream : Yes
Defeat audio cache      : Yes
Make use of C2 pointers : No
Read offset correction                      : 6
Overread into Lead-In and Lead-Out          : No
Fill up missing offset samples with silence : Yes
Delete leading and trailing silent blocks   : No
Null samples used in CRC calculations       : Yes
Used interface                              : Native Win32 interface for Win NT & 2000
Used output format              : User Defined Encoder
Selected bitrate                : 1024 kBit/s
Quality                         : High
Add ID3 tag                     : No
Command line compressor         : C:\Program Files (x86)\Exact Audio Copy\win64\flac.exe
Additional command line options :  -V -8 -T "Date=%year%" -T "Genre=%genre%" %source%
TOC of the extracted CD
     Track |   Start  |  Length  | Start sector | End sector
    ---------------------------------------------------------
        1  |  0:00.00 |  3:36.61 |         0    |    16260
        2  |  3:36.61 |  3:47.06 |     16261    |    33291
        3  |  7:23.67 |  4:10.46 |     33292    |    52087
        4  | 11:34.38 |  6:41.04 |     52088    |    82166
        5  | 18:15.42 |  6:28.17 |     82167    |   111283
        6  | 24:43.59 |  4:15.04 |    111284    |   130412
        7  | 28:58.63 |  2:28.63 |    130413    |   141575
        8  | 31:27.51 |  4:02.54 |    141576    |   159779
        9  | 35:30.30 |  3:42.42 |    159780    |   176471
       10  | 39:12.72 |  4:55.25 |    176472    |   198621
       11  | 44:08.22 |  4:15.22 |    198622    |   217768
       12  | 48:23.44 |  6:16.37 |    217769    |   246005
       13  | 54:40.06 |  3:45.19 |    246006    |   262899
       14  | 58:25.25 |  3:21.10 |    262900    |   277984
Range status and errors
Selected range
     Filename C:\Sket4er\Sagittarius Passing Through - Media Line Road (2009)\Sagittarius Passing Through - Media Line Road.wav
     Peak level 100.0 %
     Extraction speed 3.2 X
     Range quality 99.9 %
     Test CRC B2EF99B0
     Copy CRC B2EF99B0
     Copy OK
No errors occurred
AccurateRip summary
Track  1  not present in database
Track  2  not present in database
Track  3  not present in database
Track  4  not present in database
Track  5  not present in database
Track  6  not present in database
Track  7  not present in database
Track  8  not present in database
Track  9  not present in database
Track 10  not present in database
Track 11  not present in database
Track 12  not present in database
Track 13  not present in database
Track 14  not present in database
None of the tracks are present in the AccurateRip database
End of status report
---- CUETools DB Plugin V2.1.6
[CTDB TOCID: N.z_5adZ9aZJ_oYLCisq9qSMrd0-] found
Submit result: already submitted
Track | CTDB Status
  1   | (1/1) Accurately ripped
  2   | (1/1) Accurately ripped
  3   | (1/1) Accurately ripped
  4   | (1/1) Accurately ripped
  5   | (1/1) Accurately ripped
  6   | (1/1) Accurately ripped
  7   | (1/1) Accurately ripped
  8   | (1/1) Accurately ripped
  9   | (1/1) Accurately ripped
 10   | (1/1) Accurately ripped
 11   | (1/1) Accurately ripped
 12   | (1/1) Accurately ripped
 13   | (1/1) Accurately ripped
 14   | (1/1) Accurately ripped
==== Log checksum 0B683E0A148AAEEAB9099328180E7765922E051E4EF884F7981A247F7F6D1680 ====
Код:
REM GENRE Rock
REM DATE 2009
REM DISCID C90E7A0E
REM COMMENT "ExactAudioCopy v1.1"
PERFORMER "Media Line Road"
TITLE "Sagittarius Passing Through"
FILE "Media Line Road - Sagittarius Passing Through.flac" WAVE
  TRACK 01 AUDIO
    TITLE "Old Belle's Bop"
    PERFORMER "Media Line Road"
    FLAGS DCP
    INDEX 01 00:00:00
  TRACK 02 AUDIO
    TITLE "Shaking Hands With Friends"
    PERFORMER "Media Line Road"
    FLAGS DCP
    INDEX 01 03:36:61
  TRACK 03 AUDIO
    TITLE "It's Kinda Creepy, Baby"
    PERFORMER "Media Line Road"
    FLAGS DCP
    INDEX 01 07:23:67
  TRACK 04 AUDIO
    TITLE "We're Not From Here"
    PERFORMER "Media Line Road"
    FLAGS DCP
    INDEX 01 11:34:38
  TRACK 05 AUDIO
    TITLE "This End"
    PERFORMER "Media Line Road"
    FLAGS DCP
    INDEX 01 18:15:42
  TRACK 06 AUDIO
    TITLE "What In The World"
    PERFORMER "Media Line Road"
    FLAGS DCP
    INDEX 01 24:43:59
  TRACK 07 AUDIO
    TITLE " I've Been Trying"
    PERFORMER "Media Line Road"
    FLAGS DCP
    INDEX 01 28:58:63
  TRACK 08 AUDIO
    TITLE "Prayer"
    PERFORMER "Media Line Road"
    FLAGS DCP
    INDEX 01 31:27:51
  TRACK 09 AUDIO
    TITLE "Lovell Avenue"
    PERFORMER "Media Line Road"
    FLAGS DCP
    INDEX 01 35:30:30
  TRACK 10 AUDIO
    TITLE "Who the Hell, Really?"
    PERFORMER "Media Line Road"
    FLAGS DCP
    INDEX 01 39:12:72
  TRACK 11 AUDIO
    TITLE "Good To Have You Back Again"
    PERFORMER "Media Line Road"
    FLAGS DCP
    INDEX 01 44:08:22
  TRACK 12 AUDIO
    TITLE "Diamond's Dad"
    PERFORMER "Media Line Road"
    FLAGS DCP
    INDEX 01 48:23:44
  TRACK 13 AUDIO
    TITLE "Beautiful Daughter"
    PERFORMER "Media Line Road"
    FLAGS DCP
    INDEX 01 54:40:06
  TRACK 14 AUDIO
    TITLE "Fly"
    PERFORMER "Media Line Road"
    FLAGS DCP
    INDEX 01 58:25:25
Код:
-----------------------
DON'T MODIFY THIS FILE
-----------------------
PERFORMER: auCDtect Task Manager, ver. 1.5.1RC4 build 1.5.1.5
Copyright (c) 2008-2010 y-soft. All rights reserved
[url=http://y-soft.org]http://y-soft.org[/url]
ANALYZER: auCDtect: CD records authenticity detector, version 0.8.2
Copyright (c) 2004 Oleg Berngardt. All rights reserved.
Copyright (c) 2004 Alexander Djourik. All rights reserved.
FILE: Media Line Road - Sagittarius Passing Through.flac
  Size: 354384531 Hash: 417BAFFA2908FF1AFA673DF49D32B0F6 Accuracy: -m0
  Conclusion: MPEG 95%
  Signature: 50B5998A19927CD88246C2DE804D470EA8595B8D
Код:
[CUETools log; Date: 28.09.2016 19:36:07; Version: 2.1.4]
[CTDB TOCID: N.z_5adZ9aZJ_oYLCisq9qSMrd0-] found.
Track | CTDB Status
  1   | (1/1) Accurately ripped
  2   | (1/1) Accurately ripped
  3   | (1/1) Accurately ripped
  4   | (1/1) Accurately ripped
  5   | (1/1) Accurately ripped
  6   | (1/1) Accurately ripped
  7   | (1/1) Accurately ripped
  8   | (1/1) Accurately ripped
  9   | (1/1) Accurately ripped
 10   | (1/1) Accurately ripped
 11   | (1/1) Accurately ripped
 12   | (1/1) Accurately ripped
 13   | (1/1) Accurately ripped
 14   | (1/1) Accurately ripped
[AccurateRip ID: 002024f7-01578984-c90e7a0e] disk not present in database.
Track Peak [ CRC32  ] [W/O NULL] [  LOG   ]
 --  100,0 [B2EF99B0] [074A7B5D]   CRC32
 01  100,0 [68EF2C56] [6B2F1D16]
 02  100,0 [2BA42F5E] [325269D6]
 03  100,0 [1CC4840C] [41324E66]
 04  100,0 [E99521DE] [FCB70075]
 05  100,0 [22E749BC] [28665EC5]
 06  100,0 [83E4E15F] [155E9ACF]
 07  100,0 [A9CCD3FA] [5D60B751]
 08  100,0 [D318A4EA] [84BAB8D5]
 09  100,0 [BEF628E3] [0E4273FC]
 10   82,6 [8291C5A9] [40B0A358]
 11  100,0 [9695E086] [330C2BA3]
 12  100,0 [2F9AEF14] [33635A52]
 13   80,8 [D101886D] [F274E3C8]
 14   96,8 [0C5FB4DB] [F624D0E5]
Код:
foobar2000 1.3.9 / Замер динамического диапазона (DR) 1.1.1
Дата отчёта:  2016-10-31 16:36:29
--------------------------------------------------------------------------------
Анализ:   Media Line Road / Sagittarius Passing Through
--------------------------------------------------------------------------------
DR         Пики         RMS           Продолжительность трека
--------------------------------------------------------------------------------
DR12       0.00 дБ   -13.31 дБ      3:37 1-Old Belle's Bop
DR9        0.00 дБ    -9.91 дБ      3:47 2-Shaking Hands With Friends
DR9        0.00 дБ   -10.79 дБ      4:11 3-It's Kinda Creepy, Baby
DR9        0.00 дБ   -10.75 дБ      6:41 4-We're Not From Here
DR9        0.00 дБ    -9.32 дБ      6:28 5-This End
DR14       0.00 дБ   -17.31 дБ      4:15 6-What In The World
DR10       0.00 дБ   -12.67 дБ      2:29 7- I've Been Trying
DR10       0.00 дБ   -11.04 дБ      4:03 8-Prayer
DR8        0.00 дБ   -11.17 дБ      3:43 9-Lovell Avenue
DR10      -1.65 дБ   -14.02 дБ      4:55 10-Who the Hell, Really?
DR6        0.00 дБ    -6.97 дБ      4:15 11-Good To Have You Back Again
DR11       0.00 дБ   -13.34 дБ      6:16 12-Diamond's Dad
DR8       -1.85 дБ   -13.53 дБ      3:45 13-Beautiful Daughter
DR9       -1.75 дБ   -15.31 дБ      3:21 14-Fly
--------------------------------------------------------------------------------
Количество треков: 14
Реальные значения DR: DR10
Частота:   44100 Гц
Каналов:   2
Разрядность:   16
Битрейт:   765 кбит/с
Кодек:   FLAC
================================================================================
Доп. информация
Christine Ziegler - vocals
Pierce - guitar, vocals
Steve Bitzer - lead guitar
Jesse - keyboards
Jack - bass
'Sleepy' Mel Holloway - drums
Media Line Road mix '60's and '70's-era pop-rock sensibilities with kaleidoscopic flair on their fine new CD, Sagittarius Passing Through. Recalling classic rock bands such as Pink Floyd (We're Not From Here), The Doors (I've Been Trying), Moody Blues (Fly), and especially, the solo work of George Harrison, the 14-track collection features the kind of echo-y psychedelic effects that defined a lost era of Rock. The CD-opener, Old Belle's Bop, a tremolo-laden pop song with tasty slide licks, boasts more than a hint of George Harrison-like Top 40 charm, while It's Kinda Creepy Baby sounds like a demented carnival nightmare (check out the backward guitar overdubs). Re-visiting the Harrison reference, Prayer is a spiritual ballad with some excellent interplay between slide and mandolin, and & Good To Have You Back Again exudes the polished pop of Harrison's work with Jeff Lynne. All told, Media Line Road's Sagittarius Passing Through CD is a potent and winning blend of classic and psychedelic rock influences that touches all the right bases. - Rice B. and the RadioIndy.com Reviewer team --RadioIndy.com
https://www.amazon.com/Sagittarius-Passing-Through-Media-Line/dp/B002TTNWGO
http://www.cduniverse.com/productinfo.asp?pid=8048898
http://www.allmusic.com/artist/media-line-road-mn0000416815
Ознакомиться можно здесь
Правила, инструкции, FAQ!!!
Торрент  Добавлен [26 мар 2019, 19:53] Скачать торрент Магнет ссылка
Скачать торрент
[ Размер 14.09 КБ / Просмотров 0 ]

Статус
Проверен 
 
Размер  338.86 МБ
Приватный: Нет (DHT включён)
.torrent скачан  0
 


     Отправить личное сообщение
   
Страница 1 из 1
Показать сообщения за:  Поле сортировки  
Начать новую тему Ответить на тему


Сейчас этот форум просматривают: нет зарегистрированных пользователей и гости: 0


Вы не можете начинать темы
Вы не можете отвечать на сообщения
Вы не можете редактировать свои сообщения
Вы не можете удалять свои сообщения
Вы не можете добавлять вложения

Перейти:  
cron