Начать новую тему Ответить на тему
Статистика раздачи
Размер: 1007.91 МБ | Добавлен: 26 мар 2019, 19:43 | Скачали: 0
Сидеров: 1  [0 байт/сек]    Личеров: 0  [0 байт/сек]
Пред. тема | След. тема 

Автор
Сообщение

СообщениеДобавлено: 26 мар 2019, 19:43 

Ответить с цитатой 

Steve Ball - Steve Ball Box Set (3CD) - 2003
Жанр: pop rock, math-rock, guitar craft
Носитель: CD
Страна-производитель диска:
Год первого выпуска: sept 2003
Год настоящего издания: 2003
Издатель (лейбл): Ballistic Music
Номер по каталогу: bm0301/bm0302/bm0303
Format: 3xCD, Box Set
Страна исполнителя (группы): US
Аудиокодек: FLAC (*.flac)
Тип рипа: tracks+.cue
Битрейт аудио: lossless
Источник (релизер): What.CD
Наличие сканов в содержимом раздачи: fronts
#777Продолжительность:
Треклист:
01. Secret Agent
(2:33)
02. She's Not Coming Back (04:48)
03. Time Stands Still (04:12)
04. Beehive (02:30)
05. Landfill (03:48)
06. Gravity (05:32)
07. RV (Relation Vacation) (02:57)
08. Kneeling Down (02:59)
09. I Believe In Tomorrow (03:35)
10. Live Here (03:50)
11. Not Coming Back (04:17)
12. Needle And Thread (04:49)
13. Sundress Happiness (04:02)
14. I Am (Not?) In Love (04:05)
15. Roadshow (05:39)
Код:
Exact Audio Copy V0.99 prebeta 5 from 4. May 2009
EAC extraction logfile from 19. December 2009, 2:47
Steve Ball / CD 1 - Roadshow
Used drive  : HL-DT-STDVDRAM GSA-4082N   Adapter: 1  ID: 0
Read mode               : Secure
Utilize accurate stream : Yes
Defeat audio cache      : Yes
Make use of C2 pointers : No
Read offset correction                      : 667
Overread into Lead-In and Lead-Out          : No
Fill up missing offset samples with silence : Yes
Delete leading and trailing silent blocks   : No
Null samples used in CRC calculations       : Yes
Used interface                              : Native Win32 interface for Win NT & 2000
Gap handling                                : Appended to previous track
Used output format              : User Defined Encoder
Selected bitrate                : 320 kBit/s
Quality                         : High
Add ID3 tag                     : No
Command line compressor         : C:\Program Files\Exact Audio Copy\Flac\flac.exe
Additional command line options : -V -8 -T "artist=%a" -T "title=%t" -T "album=%g" -T "date=%y" -T
"tracknumber=%n" -T "genre=%m" %s
TOC of the extracted CD
     Track |   Start  |  Length  | Start sector | End sector
    ---------------------------------------------------------
        1  |  0:00.00 |  2:33.69 |         0    |    11543
        2  |  2:33.69 |  4:48.21 |     11544    |    33164
        3  |  7:22.15 |  4:12.33 |     33165    |    52097
        4  | 11:34.48 |  2:30.09 |     52098    |    63356
        5  | 14:04.57 |  3:48.27 |     63357    |    80483
        6  | 17:53.09 |  5:32.56 |     80484    |   105439
        7  | 23:25.65 |  2:57.58 |    105440    |   118772
        8  | 26:23.48 |  2:59.21 |    118773    |   132218
        9  | 29:22.69 |  3:35.71 |    132219    |   148414
       10  | 32:58.65 |  3:50.67 |    148415    |   165731
       11  | 36:49.57 |  4:17.24 |    165732    |   185030
       12  | 41:07.06 |  4:49.09 |    185031    |   206714
       13  | 45:56.15 |  4:02.03 |    206715    |   224867
       14  | 49:58.18 |  4:05.40 |    224868    |   243282
       15  | 54:03.58 |  5:39.18 |    243283    |   268725
Track  1
     Filename D:\eac\Steve Ball - 2003 - CD 1 - Roadshow [FLAC]\01 - Secret Agent.wav
     Pre-gap length  0:00:02.00
     Peak level 94.1 %
     Track quality 100.0 %
     Test CRC 64B5C593
     Copy CRC 64B5C593
     Track not present in AccurateRip database
     Copy OK
Track  2
     Filename D:\eac\Steve Ball - 2003 - CD 1 - Roadshow [FLAC]\02 - She's Not Coming Back.wav
     Peak level 94.9 %
     Track quality 100.0 %
     Test CRC 40C449CB
     Copy CRC 40C449CB
     Track not present in AccurateRip database
     Copy OK
Track  3
     Filename D:\eac\Steve Ball - 2003 - CD 1 - Roadshow [FLAC]\03 - Time Stand Still.wav
     Peak level 93.0 %
     Track quality 100.0 %
     Test CRC 6DE452C2
     Copy CRC 6DE452C2
     Track not present in AccurateRip database
     Copy OK
Track  4
     Filename D:\eac\Steve Ball - 2003 - CD 1 - Roadshow [FLAC]\04 - Beehive.wav
     Peak level 89.7 %
     Track quality 100.0 %
     Test CRC 6F045363
     Copy CRC 6F045363
     Track not present in AccurateRip database
     Copy OK
Track  5
     Filename D:\eac\Steve Ball - 2003 - CD 1 - Roadshow [FLAC]\05 - Landfill.wav
     Peak level 91.5 %
     Track quality 100.0 %
     Test CRC 74A2C411
     Copy CRC 74A2C411
     Track not present in AccurateRip database
     Copy OK
Track  6
     Filename D:\eac\Steve Ball - 2003 - CD 1 - Roadshow [FLAC]\06 - Gravity.wav
     Peak level 94.0 %
     Track quality 99.9 %
     Test CRC 5DD3A328
     Copy CRC 5DD3A328
     Track not present in AccurateRip database
     Copy OK
Track  7
     Filename D:\eac\Steve Ball - 2003 - CD 1 - Roadshow [FLAC]\07 - RV (Relation Vacation).wav
     Peak level 89.8 %
     Track quality 100.0 %
     Test CRC 6460BB4E
     Copy CRC 6460BB4E
     Track not present in AccurateRip database
     Copy OK
Track  8
     Filename D:\eac\Steve Ball - 2003 - CD 1 - Roadshow [FLAC]\08 - Kneeling Down.wav
     Peak level 90.2 %
     Track quality 100.0 %
     Test CRC 673384E2
     Copy CRC 673384E2
     Track not present in AccurateRip database
     Copy OK
Track  9
     Filename D:\eac\Steve Ball - 2003 - CD 1 - Roadshow [FLAC]\09 - I Believe In Tomorrow.wav
     Peak level 91.9 %
     Track quality 100.0 %
     Test CRC 0BE64810
     Copy CRC 0BE64810
     Track not present in AccurateRip database
     Copy OK
Track 10
     Filename D:\eac\Steve Ball - 2003 - CD 1 - Roadshow [FLAC]\10 - Live Here.wav
     Peak level 98.5 %
     Track quality 100.0 %
     Test CRC 6A57C5BF
     Copy CRC 6A57C5BF
     Track not present in AccurateRip database
     Copy OK
Track 11
     Filename D:\eac\Steve Ball - 2003 - CD 1 - Roadshow [FLAC]\11 - Not Coming Back.wav
     Peak level 69.1 %
     Track quality 100.0 %
     Test CRC 75976DFF
     Copy CRC 75976DFF
     Track not present in AccurateRip database
     Copy OK
Track 12
     Filename D:\eac\Steve Ball - 2003 - CD 1 - Roadshow [FLAC]\12 - Needle and Thread.wav
     Peak level 97.5 %
     Track quality 100.0 %
     Test CRC 9025D3E3
     Copy CRC 9025D3E3
     Track not present in AccurateRip database
     Copy OK
Track 13
     Filename D:\eac\Steve Ball - 2003 - CD 1 - Roadshow [FLAC]\13 - Sundress Happiness.wav
     Peak level 96.6 %
     Track quality 100.0 %
     Test CRC A4CA0418
     Copy CRC A4CA0418
     Track not present in AccurateRip database
     Copy OK
Track 14
     Filename D:\eac\Steve Ball - 2003 - CD 1 - Roadshow [FLAC]\14 - I am (not ) in Love.wav
     Peak level 91.6 %
     Track quality 100.0 %
     Test CRC 7C55A731
     Copy CRC 7C55A731
     Track not present in AccurateRip database
     Copy OK
Track 15
     Filename D:\eac\Steve Ball - 2003 - CD 1 - Roadshow [FLAC]\15 - Roadshow.wav
     Peak level 85.2 %
     Track quality 100.0 %
     Test CRC FB0164AF
     Copy CRC FB0164AF
     Track not present in AccurateRip database
     Copy OK
None of the tracks are present in the AccurateRip database
No errors occurred
End of status report
Код:
REM GENRE Pop
REM DATE 2003
REM DISCID D20DFF0F
REM COMMENT "ExactAudioCopy v0.99pb5"
PERFORMER "Steve Ball"
TITLE "CD 1 - Roadshow"
FILE "01 - Secret Agent.wav" WAVE
  TRACK 01 AUDIO
    TITLE "Secret Agent"
    PERFORMER "Steve Ball"
    FLAGS DCP
    INDEX 01 00:00:00
FILE "02 - She's Not Coming Back.wav" WAVE
  TRACK 02 AUDIO
    TITLE "She's Not Coming Back"
    PERFORMER "Steve Ball"
    FLAGS DCP
    INDEX 01 00:00:00
FILE "03 - Time Stand Still.wav" WAVE
  TRACK 03 AUDIO
    TITLE "Time Stand Still"
    PERFORMER "Steve Ball"
    FLAGS DCP
    INDEX 01 00:00:00
FILE "04 - Beehive.wav" WAVE
  TRACK 04 AUDIO
    TITLE "Beehive"
    PERFORMER "Steve Ball"
    FLAGS DCP
    INDEX 01 00:00:00
FILE "05 - Landfill.wav" WAVE
  TRACK 05 AUDIO
    TITLE "Landfill"
    PERFORMER "Steve Ball"
    FLAGS DCP
    INDEX 01 00:00:00
FILE "06 - Gravity.wav" WAVE
  TRACK 06 AUDIO
    TITLE "Gravity"
    PERFORMER "Steve Ball"
    FLAGS DCP
    INDEX 01 00:00:00
FILE "07 - RV (Relation Vacation).wav" WAVE
  TRACK 07 AUDIO
    TITLE "RV (Relation Vacation)"
    PERFORMER "Steve Ball"
    FLAGS DCP
    INDEX 01 00:00:00
FILE "08 - Kneeling Down.wav" WAVE
  TRACK 08 AUDIO
    TITLE "Kneeling Down"
    PERFORMER "Steve Ball"
    FLAGS DCP
    INDEX 01 00:00:00
FILE "09 - I Believe In Tomorrow.wav" WAVE
  TRACK 09 AUDIO
    TITLE "I Believe In Tomorrow"
    PERFORMER "Steve Ball"
    FLAGS DCP
    INDEX 01 00:00:00
FILE "10 - Live Here.wav" WAVE
  TRACK 10 AUDIO
    TITLE "Live Here"
    PERFORMER "Steve Ball"
    FLAGS DCP
    INDEX 01 00:00:00
FILE "11 - Not Coming Back.wav" WAVE
  TRACK 11 AUDIO
    TITLE "Not Coming Back"
    PERFORMER "Steve Ball"
    FLAGS DCP
    INDEX 01 00:00:00
FILE "12 - Needle and Thread.wav" WAVE
  TRACK 12 AUDIO
    TITLE "Needle and Thread"
    PERFORMER "Steve Ball"
    FLAGS DCP
    INDEX 01 00:00:00
FILE "13 - Sundress Happiness.wav" WAVE
  TRACK 13 AUDIO
    TITLE "Sundress Happiness"
    PERFORMER "Steve Ball"
    FLAGS DCP
    INDEX 01 00:00:00
FILE "14 - I am (not ) in Love.wav" WAVE
  TRACK 14 AUDIO
    TITLE "I am (not?) in Love"
    PERFORMER "Steve Ball"
    FLAGS DCP
    INDEX 01 00:00:00
FILE "15 - Roadshow.wav" WAVE
  TRACK 15 AUDIO
    TITLE "Roadshow"
    PERFORMER "Steve Ball"
    FLAGS DCP
    INDEX 01 00:00:00
Код:
AUDIOCHECKER v2.0 beta (build 457) - by Dester - opdester@freemail.hu
Path: ...\CD 1 - Roadshow
01 -=- 01 - Secret Agent.flac -=- CDDA (100%)
02 -=- 02 - She's Not Coming Back.flac -=- CDDA (100%)
03 -=- 03 - Time Stand Still.flac -=- CDDA (100%)
04 -=- 04 - Beehive.flac -=- CDDA (100%)
05 -=- 05 - Landfill.flac -=- CDDA (100%)
06 -=- 06 - Gravity.flac -=- CDDA (100%)
07 -=- 07 - RV (Relation Vacation).flac -=- CDDA (100%)
08 -=- 08 - Kneeling Down.flac -=- CDDA (100%)
09 -=- 09 - I Believe In Tomorrow.flac -=- CDDA (100%)
10 -=- 10 - Live Here.flac -=- CDDA (100%)
11 -=- 11 - Not Coming Back.flac -=- CDDA (100%)
12 -=- 12 - Needle and Thread.flac -=- CDDA (100%)
13 -=- 13 - Sundress Happiness.flac -=- CDDA (100%)
14 -=- 14 - I am (not ) in Love.flac -=- CDDA (99%)
15 -=- 15 - Roadshow.flac -=- CDDA (100%)
Summary 99,93% CDDA
89218404
Доп. информация: "Roadshow" содержит 15 оригинальных композиций Стива для нескольких голосов, нескольких гитар, барабанов и перкуссии. Записаны с участием Travis Metcalf, Travis Hartnett, Derek DiFilippo, а также специально приглашёнными Bill Rieflin, Pat Mastelotto, Lisa Herrman, Ken Kato.
#777Продолжительность:
Треклист:
01. Lay My Love (Eno/Cale) (03:39)
02. Naive Melody (Byrne/Frantz/Jerry Harrison/Weymouth) (04:47)
03. Starship Trooper (Anderson/Squire/Howe) (06:33)
04. Walking In Your Footsteps (Sting) (03:33)
05. Running Up That Hill (Bush) (05:01)
06. Honest Work (Rundgren) (03:14)
07. The Good Thing (Byrne) (03:46)
08. Sunday Bloody Sunday (U2) (04:46)
09. All I Know (Webb) (03:20)
10. Wave (Sylvian) (03:52)
11. Close Watch (Cale) (02:59)
12. Just What I Needed (Ocasek) (03:36)
13. Shame Of Doing Wrong (Thompson) (04:53)
14. Baba O'Riley (Townshend) (04:29)
15. Under the Milky Way (Kilbey/Jansson) (07:41)
Код:
Exact Audio Copy V0.99 prebeta 5 from 4. May 2009
EAC extraction logfile from 19. December 2009, 11:52
Steve Ball / CD 2 - Naive Melodies
Used drive  : HL-DT-STDVDRAM GSA-4082N   Adapter: 1  ID: 0
Read mode               : Secure
Utilize accurate stream : Yes
Defeat audio cache      : Yes
Make use of C2 pointers : No
Read offset correction                      : 667
Overread into Lead-In and Lead-Out          : No
Fill up missing offset samples with silence : Yes
Delete leading and trailing silent blocks   : No
Null samples used in CRC calculations       : Yes
Used interface                              : Native Win32 interface for Win NT & 2000
Gap handling                                : Appended to previous track
Used output format              : User Defined Encoder
Selected bitrate                : 320 kBit/s
Quality                         : High
Add ID3 tag                     : No
Command line compressor         : C:\Program Files\Exact Audio Copy\Flac\flac.exe
Additional command line options : -V -8 -T "artist=%a" -T "title=%t" -T "album=%g" -T "date=%y" -T
"tracknumber=%n" -T "genre=%m" %s
TOC of the extracted CD
     Track |   Start  |  Length  | Start sector | End sector
    ---------------------------------------------------------
        1  |  0:00.00 |  3:39.42 |         0    |    16466
        2  |  3:39.42 |  4:47.60 |     16467    |    38051
        3  |  8:27.27 |  6:33.71 |     38052    |    67597
        4  | 15:01.23 |  3:33.00 |     67598    |    83572
        5  | 18:34.23 |  5:01.16 |     83573    |   106163
        6  | 23:35.39 |  3:14.30 |    106164    |   120743
        7  | 26:49.69 |  3:46.59 |    120744    |   137752
        8  | 30:36.53 |  4:46.29 |    137753    |   159231
        9  | 35:23.07 |  3:20.68 |    159232    |   174299
       10  | 38:44.00 |  3:52.18 |    174300    |   191717
       11  | 42:36.18 |  2:59.13 |    191718    |   205155
       12  | 45:35.31 |  3:36.63 |    205156    |   221418
       13  | 49:12.19 |  4:53.69 |    221419    |   243462
       14  | 54:06.13 |  4:29.61 |    243463    |   263698
       15  | 58:35.74 |  7:41.59 |    263699    |   298332
Track  1
     Filename D:\eac\Steve Ball - 2003 - CD 2 - Naive Melodies [FLAC]\01 - Lay My Love.wav
     Pre-gap length  0:00:02.00
     Peak level 92.2 %
     Track quality 100.0 %
     Test CRC 109FE826
     Copy CRC 109FE826
     Track not present in AccurateRip database
     Copy OK
Track  2
     Filename D:\eac\Steve Ball - 2003 - CD 2 - Naive Melodies [FLAC]\02 - Naive Melody.wav
     Peak level 98.2 %
     Track quality 100.0 %
     Test CRC 2771EB74
     Copy CRC 2771EB74
     Track not present in AccurateRip database
     Copy OK
Track  3
     Filename D:\eac\Steve Ball - 2003 - CD 2 - Naive Melodies [FLAC]\03 - Starship Trooper.wav
     Peak level 99.8 %
     Track quality 100.0 %
     Test CRC 5439457A
     Copy CRC 5439457A
     Track not present in AccurateRip database
     Copy OK
Track  4
     Filename D:\eac\Steve Ball - 2003 - CD 2 - Naive Melodies [FLAC]\04 - Walking in Your
Footsteps.wav
     Peak level 100.0 %
     Track quality 100.0 %
     Test CRC F1F794F5
     Copy CRC F1F794F5
     Track not present in AccurateRip database
     Copy OK
Track  5
     Filename D:\eac\Steve Ball - 2003 - CD 2 - Naive Melodies [FLAC]\05 - Running Up That Hill.wav
     Peak level 97.8 %
     Track quality 100.0 %
     Test CRC 2B19F412
     Copy CRC 2B19F412
     Track not present in AccurateRip database
     Copy OK
Track  6
     Filename D:\eac\Steve Ball - 2003 - CD 2 - Naive Melodies [FLAC]\06 - Honest Work.wav
     Peak level 99.0 %
     Track quality 100.0 %
     Test CRC 96EDEB69
     Copy CRC 96EDEB69
     Track not present in AccurateRip database
     Copy OK
Track  7
     Filename D:\eac\Steve Ball - 2003 - CD 2 - Naive Melodies [FLAC]\07 - The Good Thing.wav
     Peak level 100.0 %
     Track quality 99.9 %
     Test CRC 7231ABEE
     Copy CRC 7231ABEE
     Track not present in AccurateRip database
     Copy OK
Track  8
     Filename D:\eac\Steve Ball - 2003 - CD 2 - Naive Melodies [FLAC]\08 - Sunday Bloody Sunday.wav
     Peak level 88.6 %
     Track quality 100.0 %
     Test CRC 15D64A40
     Copy CRC 15D64A40
     Track not present in AccurateRip database
     Copy OK
Track  9
     Filename D:\eac\Steve Ball - 2003 - CD 2 - Naive Melodies [FLAC]\09 - All I Know.wav
     Peak level 100.0 %
     Track quality 99.9 %
     Test CRC 68586766
     Copy CRC 68586766
     Track not present in AccurateRip database
     Copy OK
Track 10
     Filename D:\eac\Steve Ball - 2003 - CD 2 - Naive Melodies [FLAC]\10 - Wave.wav
     Peak level 92.2 %
     Track quality 100.0 %
     Test CRC 2B9C140F
     Copy CRC 2B9C140F
     Track not present in AccurateRip database
     Copy OK
Track 11
     Filename D:\eac\Steve Ball - 2003 - CD 2 - Naive Melodies [FLAC]\11 - Close Watch.wav
     Peak level 89.2 %
     Track quality 100.0 %
     Test CRC 3454D599
     Copy CRC 3454D599
     Track not present in AccurateRip database
     Copy OK
Track 12
     Filename D:\eac\Steve Ball - 2003 - CD 2 - Naive Melodies [FLAC]\12 - Just What I Needed.wav
     Peak level 77.7 %
     Track quality 99.9 %
     Test CRC 245917B6
     Copy CRC 245917B6
     Track not present in AccurateRip database
     Copy OK
Track 13
     Filename D:\eac\Steve Ball - 2003 - CD 2 - Naive Melodies [FLAC]\13 - Shame of Doing Wrong.wav
     Peak level 100.0 %
     Track quality 100.0 %
     Test CRC FAB3D478
     Copy CRC FAB3D478
     Track not present in AccurateRip database
     Copy OK
Track 14
     Filename D:\eac\Steve Ball - 2003 - CD 2 - Naive Melodies [FLAC]\14 - Baba O'Riley.wav
     Peak level 100.0 %
     Track quality 100.0 %
     Test CRC 0C0CB2C1
     Copy CRC 0C0CB2C1
     Track not present in AccurateRip database
     Copy OK
Track 15
     Filename D:\eac\Steve Ball - 2003 - CD 2 - Naive Melodies [FLAC]\15 - Under the Milky Way.wav
     Peak level 99.1 %
     Track quality 100.0 %
     Test CRC 1E966FCF
     Copy CRC 1E966FCF
     Track not present in AccurateRip database
     Copy OK
None of the tracks are present in the AccurateRip database
No errors occurred
End of status report
Код:
REM GENRE Pop
REM DATE 2003
REM DISCID C70F890F
REM COMMENT "ExactAudioCopy v0.99pb5"
PERFORMER "Steve Ball"
TITLE "CD 2 - Naive Melodies"
FILE "01 - Lay My Love.wav" WAVE
  TRACK 01 AUDIO
    TITLE "Lay My Love"
    PERFORMER "Steve Ball"
    FLAGS DCP
    INDEX 01 00:00:00
FILE "02 - Naive Melody.wav" WAVE
  TRACK 02 AUDIO
    TITLE "Naive Melody"
    PERFORMER "Steve Ball"
    FLAGS DCP
    INDEX 01 00:00:00
FILE "03 - Starship Trooper.wav" WAVE
  TRACK 03 AUDIO
    TITLE "Starship Trooper"
    PERFORMER "Steve Ball"
    FLAGS DCP
    INDEX 01 00:00:00
FILE "04 - Walking in Your Footsteps.wav" WAVE
  TRACK 04 AUDIO
    TITLE "Walking in Your Footsteps"
    PERFORMER "Steve Ball"
    FLAGS DCP
    INDEX 01 00:00:00
FILE "05 - Running Up That Hill.wav" WAVE
  TRACK 05 AUDIO
    TITLE "Running Up That Hill"
    PERFORMER "Steve Ball"
    FLAGS DCP
    INDEX 01 00:00:00
FILE "06 - Honest Work.wav" WAVE
  TRACK 06 AUDIO
    TITLE "Honest Work"
    PERFORMER "Steve Ball"
    FLAGS DCP
    INDEX 01 00:00:00
FILE "07 - The Good Thing.wav" WAVE
  TRACK 07 AUDIO
    TITLE "The Good Thing"
    PERFORMER "Steve Ball"
    FLAGS DCP
    INDEX 01 00:00:00
FILE "08 - Sunday Bloody Sunday.wav" WAVE
  TRACK 08 AUDIO
    TITLE "Sunday Bloody Sunday"
    PERFORMER "Steve Ball"
    FLAGS DCP
    INDEX 01 00:00:00
FILE "09 - All I Know.wav" WAVE
  TRACK 09 AUDIO
    TITLE "All I Know"
    PERFORMER "Steve Ball"
    FLAGS DCP
    INDEX 01 00:00:00
FILE "10 - Wave.wav" WAVE
  TRACK 10 AUDIO
    TITLE "Wave"
    PERFORMER "Steve Ball"
    FLAGS DCP
    INDEX 01 00:00:00
FILE "11 - Close Watch.wav" WAVE
  TRACK 11 AUDIO
    TITLE "Close Watch"
    PERFORMER "Steve Ball"
    FLAGS DCP
    INDEX 01 00:00:00
FILE "12 - Just What I Needed.wav" WAVE
  TRACK 12 AUDIO
    TITLE "Just What I Needed"
    PERFORMER "Steve Ball"
    FLAGS DCP
    INDEX 01 00:00:00
FILE "13 - Shame of Doing Wrong.wav" WAVE
  TRACK 13 AUDIO
    TITLE "Shame of Doing Wrong"
    PERFORMER "Steve Ball"
    FLAGS DCP
    INDEX 01 00:00:00
FILE "14 - Baba O'Riley.wav" WAVE
  TRACK 14 AUDIO
    TITLE "Baba O'Riley"
    PERFORMER "Steve Ball"
    FLAGS DCP
    INDEX 01 00:00:00
FILE "15 - Under the Milky Way.wav" WAVE
  TRACK 15 AUDIO
    TITLE "Under the Milky Way"
    PERFORMER "Steve Ball"
    FLAGS DCP
    INDEX 01 00:00:00
Код:
AUDIOCHECKER v2.0 beta (build 457) - by Dester - opdester@freemail.hu
Path: ...\CD 2 - Naive Melodies
01 -=- 01 - Lay My Love.flac -=- CDDA (100%)
02 -=- 02 - Naive Melody.flac -=- CDDA (100%)
03 -=- 03 - Starship Trooper.flac -=- CDDA (100%)
04 -=- 04 - Walking in Your Footsteps.flac -=- CDDA (100%)
05 -=- 05 - Running Up That Hill.flac -=- CDDA (100%)
06 -=- 06 - Honest Work.flac -=- CDDA (100%)
07 -=- 07 - The Good Thing.flac -=- CDDA (100%)
08 -=- 08 - Sunday Bloody Sunday.flac -=- CDDA (99%)
09 -=- 09 - All I Know.flac -=- CDDA (100%)
10 -=- 10 - Wave.flac -=- CDDA (100%)
11 -=- 11 - Close Watch.flac -=- CDDA (100%)
12 -=- 12 - Just What I Needed.flac -=- CDDA (100%)
13 -=- 13 - Shame of Doing Wrong.flac -=- CDDA (100%)
14 -=- 14 - Baba O'Riley.flac -=- CDDA (100%)
15 -=- 15 - Under the Milky Way.flac -=- CDDA (100%)
Summary 99,93% CDDA
29743940
Доп. информация: "Naive Melodies" содержит 15 кавер-версий для нескольких голосов и нескольких гитар любимых групп Стива (Talking Heads, Yes, U2, Police, The Who, Дэвид Силвиан, Ричард Томпсон, Кэйт Буш и пр). Арранжировка самих приглашённых музыкантов Travis Metcalf, Travis Hartnett, Derek DiFilippo, Tony Levin, Lisa Herrman, Bob Williams.
#777Продолжительность:
Треклист:
01. Belltower (03:06)
02. Starship Trooper (Instrumental) (07:09)
03. Cranborne (01:36)
04. Claymont Court (02:39)
05. Knotwork (03:09)
06. RV (Recreational Vehicle) (02:28)
07. Wave (Instrumental) (03:53)
08. BootlegTV (04:29)
09. Cheeseballs (01:09)
10. Seattle Guitar Circulation (04:35)
11. Red Lion (02:06)
12. Mary Is Kneeling Down (02:59)
13. Mercury Man (02:33)
14. Molehill Out Of A Mountain (03:24)
15. Milky Way (Instrumental) (05:53)
Код:
Exact Audio Copy V0.99 prebeta 5 from 4. May 2009
EAC extraction logfile from 19. December 2009, 12:36
Steve Ball / CD 3 - Knotwork
Used drive  : HL-DT-STDVDRAM GSA-4082N   Adapter: 1  ID: 0
Read mode               : Secure
Utilize accurate stream : Yes
Defeat audio cache      : Yes
Make use of C2 pointers : No
Read offset correction                      : 667
Overread into Lead-In and Lead-Out          : No
Fill up missing offset samples with silence : Yes
Delete leading and trailing silent blocks   : No
Null samples used in CRC calculations       : Yes
Used interface                              : Native Win32 interface for Win NT & 2000
Gap handling                                : Appended to previous track
Used output format              : User Defined Encoder
Selected bitrate                : 320 kBit/s
Quality                         : High
Add ID3 tag                     : No
Command line compressor         : C:\Program Files\Exact Audio Copy\Flac\flac.exe
Additional command line options : -V -8 -T "artist=%a" -T "title=%t" -T "album=%g" -T "date=%y" -T
"tracknumber=%n" -T "genre=%m" %s
TOC of the extracted CD
     Track |   Start  |  Length  | Start sector | End sector
    ---------------------------------------------------------
        1  |  0:00.00 |  3:06.14 |         0    |    13963
        2  |  3:06.14 |  7:09.44 |     13964    |    46182
        3  | 10:15.58 |  1:36.64 |     46183    |    53446
        4  | 11:52.47 |  2:39.61 |     53447    |    65432
        5  | 14:32.33 |  3:09.34 |     65433    |    79641
        6  | 17:41.67 |  2:28.17 |     79642    |    90758
        7  | 20:10.09 |  3:53.29 |     90759    |   108262
        8  | 24:03.38 |  4:29.57 |    108263    |   128494
        9  | 28:33.20 |  1:09.04 |    128495    |   133673
       10  | 29:42.24 |  4:35.62 |    133674    |   154360
       11  | 34:18.11 |  2:06.54 |    154361    |   163864
       12  | 36:24.65 |  2:59.70 |    163865    |   177359
       13  | 39:24.60 |  2:33.10 |    177360    |   188844
       14  | 41:57.70 |  3:24.28 |    188845    |   204172
       15  | 45:22.23 |  5:53.37 |    204173    |   230684
Track  1
     Filename D:\eac\Steve Ball - 2003 - CD 3 - Knotwork [FLAC]\01 - Belltower.wav
     Pre-gap length  0:00:02.00
     Peak level 91.3 %
     Track quality 100.0 %
     Test CRC BBFFE462
     Copy CRC BBFFE462
     Track not present in AccurateRip database
     Copy OK
Track  2
     Filename D:\eac\Steve Ball - 2003 - CD 3 - Knotwork [FLAC]\02 - Starship Trooper
(Instrumental).wav
     Peak level 88.5 %
     Track quality 100.0 %
     Test CRC 2426D694
     Copy CRC 2426D694
     Track not present in AccurateRip database
     Copy OK
Track  3
     Filename D:\eac\Steve Ball - 2003 - CD 3 - Knotwork [FLAC]\03 - Cranborne.wav
     Peak level 83.6 %
     Track quality 100.0 %
     Test CRC C35CF185
     Copy CRC C35CF185
     Track not present in AccurateRip database
     Copy OK
Track  4
     Filename D:\eac\Steve Ball - 2003 - CD 3 - Knotwork [FLAC]\04 - Claymont Court.wav
     Peak level 91.9 %
     Track quality 100.0 %
     Test CRC B39936C6
     Copy CRC B39936C6
     Track not present in AccurateRip database
     Copy OK
Track  5
     Filename D:\eac\Steve Ball - 2003 - CD 3 - Knotwork [FLAC]\05 - Knotwork.wav
     Peak level 97.1 %
     Track quality 100.0 %
     Test CRC 03F2ED62
     Copy CRC 03F2ED62
     Track not present in AccurateRip database
     Copy OK
Track  6
     Filename D:\eac\Steve Ball - 2003 - CD 3 - Knotwork [FLAC]\06 - RV (Recreational Vehicle).wav
     Peak level 90.7 %
     Track quality 100.0 %
     Test CRC 9A48A087
     Copy CRC 9A48A087
     Track not present in AccurateRip database
     Copy OK
Track  7
     Filename D:\eac\Steve Ball - 2003 - CD 3 - Knotwork [FLAC]\07 - Wave (Instrumental).wav
     Peak level 66.7 %
     Track quality 100.0 %
     Test CRC A32400CE
     Copy CRC A32400CE
     Track not present in AccurateRip database
     Copy OK
Track  8
     Filename D:\eac\Steve Ball - 2003 - CD 3 - Knotwork [FLAC]\08 - BootlegTV.wav
     Peak level 98.5 %
     Track quality 100.0 %
     Test CRC 23A23B4C
     Copy CRC 23A23B4C
     Track not present in AccurateRip database
     Copy OK
Track  9
     Filename D:\eac\Steve Ball - 2003 - CD 3 - Knotwork [FLAC]\09 - Cheeseballs.wav
     Peak level 100.0 %
     Track quality 99.8 %
     Test CRC 872CDA6E
     Copy CRC 872CDA6E
     Track not present in AccurateRip database
     Copy OK
Track 10
     Filename D:\eac\Steve Ball - 2003 - CD 3 - Knotwork [FLAC]\10 - Seattle Guitar Circulation.wav
     Peak level 60.9 %
     Track quality 100.0 %
     Test CRC 9A06908A
     Copy CRC 9A06908A
     Track not present in AccurateRip database
     Copy OK
Track 11
     Filename D:\eac\Steve Ball - 2003 - CD 3 - Knotwork [FLAC]\11 - Red Lion.wav
     Peak level 93.3 %
     Track quality 100.0 %
     Test CRC 7410D3A0
     Copy CRC 7410D3A0
     Track not present in AccurateRip database
     Copy OK
Track 12
     Filename D:\eac\Steve Ball - 2003 - CD 3 - Knotwork [FLAC]\12 - Mary Is Kneeling Down.wav
     Peak level 100.0 %
     Track quality 100.0 %
     Test CRC 9A85D619
     Copy CRC 9A85D619
     Track not present in AccurateRip database
     Copy OK
Track 13
     Filename D:\eac\Steve Ball - 2003 - CD 3 - Knotwork [FLAC]\13 - Mercury Man.wav
     Peak level 96.9 %
     Track quality 100.0 %
     Test CRC A101BE2C
     Copy CRC A101BE2C
     Track not present in AccurateRip database
     Copy OK
Track 14
     Filename D:\eac\Steve Ball - 2003 - CD 3 - Knotwork [FLAC]\14 - Molehill Out of a Mountain.wav
     Peak level 100.0 %
     Track quality 100.0 %
     Test CRC 46F98B5A
     Copy CRC 46F98B5A
     Track not present in AccurateRip database
     Copy OK
Track 15
     Filename D:\eac\Steve Ball - 2003 - CD 3 - Knotwork [FLAC]\15 - Milky Way (Instrumental).wav
     Peak level 84.5 %
     Track quality 100.0 %
     Test CRC 96B13042
     Copy CRC 96B13042
     Track not present in AccurateRip database
     Copy OK
None of the tracks are present in the AccurateRip database
No errors occurred
End of status report
Код:
REM GENRE Pop
REM DATE 2003
REM DISCID CA0C030F
REM COMMENT "ExactAudioCopy v0.99pb5"
PERFORMER "Steve Ball"
TITLE "CD 3 - Knotwork"
FILE "01 - Belltower.wav" WAVE
  TRACK 01 AUDIO
    TITLE "Belltower"
    PERFORMER "Steve Ball"
    FLAGS DCP
    INDEX 01 00:00:00
FILE "02 - Starship Trooper (Instrumental).wav" WAVE
  TRACK 02 AUDIO
    TITLE "Starship Trooper (Instrumental)"
    PERFORMER "Steve Ball"
    FLAGS DCP
    INDEX 01 00:00:00
FILE "03 - Cranborne.wav" WAVE
  TRACK 03 AUDIO
    TITLE "Cranborne"
    PERFORMER "Steve Ball"
    FLAGS DCP
    INDEX 01 00:00:00
FILE "04 - Claymont Court.wav" WAVE
  TRACK 04 AUDIO
    TITLE "Claymont Court"
    PERFORMER "Steve Ball"
    FLAGS DCP
    INDEX 01 00:00:00
FILE "05 - Knotwork.wav" WAVE
  TRACK 05 AUDIO
    TITLE "Knotwork"
    PERFORMER "Steve Ball"
    FLAGS DCP
    INDEX 01 00:00:00
FILE "06 - RV (Recreational Vehicle).wav" WAVE
  TRACK 06 AUDIO
    TITLE "RV (Recreational Vehicle)"
    PERFORMER "Steve Ball"
    FLAGS DCP
    INDEX 01 00:00:00
FILE "07 - Wave (Instrumental).wav" WAVE
  TRACK 07 AUDIO
    TITLE "Wave (Instrumental)"
    PERFORMER "Steve Ball"
    FLAGS DCP
    INDEX 01 00:00:00
FILE "08 - BootlegTV.wav" WAVE
  TRACK 08 AUDIO
    TITLE "BootlegTV"
    PERFORMER "Steve Ball"
    FLAGS DCP
    INDEX 01 00:00:00
FILE "09 - Cheeseballs.wav" WAVE
  TRACK 09 AUDIO
    TITLE "Cheeseballs"
    PERFORMER "Steve Ball"
    FLAGS DCP
    INDEX 01 00:00:00
FILE "10 - Seattle Guitar Circulation.wav" WAVE
  TRACK 10 AUDIO
    TITLE "Seattle Guitar Circulation"
    PERFORMER "Steve Ball"
    FLAGS DCP
    INDEX 01 00:00:00
FILE "11 - Red Lion.wav" WAVE
  TRACK 11 AUDIO
    TITLE "Red Lion"
    PERFORMER "Steve Ball"
    FLAGS DCP
    INDEX 01 00:00:00
FILE "12 - Mary Is Kneeling Down.wav" WAVE
  TRACK 12 AUDIO
    TITLE "Mary Is Kneeling Down"
    PERFORMER "Steve Ball"
    FLAGS DCP
    INDEX 01 00:00:00
FILE "13 - Mercury Man.wav" WAVE
  TRACK 13 AUDIO
    TITLE "Mercury Man"
    PERFORMER "Steve Ball"
    FLAGS DCP
    INDEX 01 00:00:00
FILE "14 - Molehill Out of a Mountain.wav" WAVE
  TRACK 14 AUDIO
    TITLE "Molehill Out of a Mountain"
    PERFORMER "Steve Ball"
    FLAGS DCP
    INDEX 01 00:00:00
FILE "15 - Milky Way (Instrumental).wav" WAVE
  TRACK 15 AUDIO
    TITLE "Milky Way (Instrumental)"
    PERFORMER "Steve Ball"
    FLAGS DCP
    INDEX 01 00:00:00
Код:
AUDIOCHECKER v2.0 beta (build 457) - by Dester - opdester@freemail.hu
Path: ...\CD 3 - Knotwork
01 -=- 01 - Belltower.flac -=- CDDA (100%)
02 -=- 02 - Starship Trooper (Instrumental).flac -=- CDDA (100%)
03 -=- 03 - Cranborne.flac -=- CDDA (99%)
04 -=- 04 - Claymont Court.flac -=- CDDA (100%)
05 -=- 05 - Knotwork.flac -=- CDDA (99%)
06 -=- 06 - RV (Recreational Vehicle).flac -=- CDDA (100%)
07 -=- 07 - Wave (Instrumental).flac -=- CDDA (100%)
08 -=- 08 - BootlegTV.flac -=- CDDA (100%)
09 -=- 09 - Cheeseballs.flac -=- CDDA (100%)
10 -=- 10 - Seattle Guitar Circulation.flac -=- CDDA (54%)
11 -=- 11 - Red Lion.flac -=- CDDA (86%)
12 -=- 12 - Mary Is Kneeling Down.flac -=- CDDA (100%)
13 -=- 13 - Mercury Man.flac -=- CDDA (100%)
14 -=- 14 - Molehill Out of a Mountain.flac -=- CDDA (100%)
15 -=- 15 - Milky Way (Instrumental).flac -=- CDDA (100%)
Summary 95,87% CDDA
46250676
Доп. информация: "Knotwork" содержит 15 инструментальных интерлюдий с акустической гитарой и ремикс-аранжировкой новых и старых песен из репертуара Стива Бала. Записаны с участием Travis Metcalf, Travis Hartnett, Derek DiFilippo, Tony Levin, Seattle Guitar Circle, Curt Golden, Bob Williams, Dean Jensen, Jaxie Binder, Chris Gibson, Taylor Sherman.
Доп. информация: Гитарист, композитор и арранжировщик Steve Ball - музыкант из Сиэтла (US). Известен по его тесной работе с Robert Fripp в его проектах и его группах.

Steve Ball
Travis Metcalf
Travis Hartnett
Derek DiFilippo
Bill Rieflin
Pat Mastelotto
Tony Levin
Bob Williams
Lisa Herrman
Seattle Guitar Circle
Curt Golden
Dean Jensen
Jaxie Binder
Chris Gibson
Taylor Sherman
Ken Kato
Правила, инструкции, FAQ!!!
Торрент  Добавлен [26 мар 2019, 19:43] Скачать торрент Магнет ссылка
Скачать торрент
[ Размер 24.6 КБ / Просмотров 7 ]

Статус
Проверен 
 
Размер  1007.91 МБ
Приватный: Нет (DHT включён)
.torrent скачан  0
 


     Отправить личное сообщение
   
Страница 1 из 1
Показать сообщения за:  Поле сортировки  
Начать новую тему Ответить на тему


Сейчас этот форум просматривают: нет зарегистрированных пользователей и гости: 0


Вы не можете начинать темы
Вы не можете отвечать на сообщения
Вы не можете редактировать свои сообщения
Вы не можете удалять свои сообщения
Вы не можете добавлять вложения

Перейти:  
cron