Начать новую тему Ответить на тему
Статистика раздачи
Размер: 420.92 МБ | Добавлен: 26 мар 2019, 19:27 | Скачали: 0
Сидеров: 1  [0 байт/сек]    Личеров: 0  [0 байт/сек]
Пред. тема | След. тема 

Автор
Сообщение

СообщениеДобавлено: 26 мар 2019, 19:27 

Ответить с цитатой 

Martin Kesici-So What...!?
Жанр: Pop-Rock
Год выпуска диска: 2005
Аудио кодек: APE
Тип рипа: image+.cue
Битрейт аудио: lossless
Продолжительность: 57:40
Трэклист:
1. Sorry 4:34
2. Egotrippin 4:09
3. Leaving you for me 3:59*
4. Hang on 3:42
5. Could have been me 4:12
6. Dislike you 3:07
7. Always a stranger 3:25
8. All of my life 4:10
9. Hope 3:32
10. God bless you 6:04
11. It's alright 3:50
12. I 3:41
13. Disappear 4:58
14. Talk to the wind 4:17
Exact Audio Copy V0.99 prebeta 4 from 23. January 2008
Отчёт EAC об извлечении, выполненном 16. февраля 2009, 23:48
Martin Kesici / so what...!?
Дисковод: HL-DT-STDVDRAM GSA-H10N Adapter: 0 ID: 1
Режим чтения : Достоверность
Использование точного потока : Да
Отключение кэша аудио : Да
Использование указателей C2 : Нет
Коррекция смещения при чтении : 667
Способность читать области Lead-in и Lead-out : Нет
Заполнение пропущенных сэмплов тишиной : Да
Удаление блоков с тишиной в начале и конце : Нет
При вычислениях CRC использовались нулевые сэмплы : Да
Интерфейс : Установленный внешний ASPI-интерфейс
Выходной формат : Внутренние WAV-операции
Формат сэмплов : 44.100 Гц; 16 бит; стерео
TOC извлечённого CD
Трек | Старт | Длительность | Начальный сектор | Конечный сектор
---------------------------------------------------------------------
1 | 0:00.00 | 4:34.22 | 0 | 20571
2 | 4:34.22 | 4:09.61 | 20572 | 39307
3 | 8:44.08 | 3:58.55 | 39308 | 57212
4 | 12:42.63 | 3:42.67 | 57213 | 73929
5 | 16:25.55 | 4:11.52 | 73930 | 92806
6 | 20:37.32 | 3:07.04 | 92807 | 106835
7 | 23:44.36 | 3:26.00 | 106836 | 122285
8 | 27:10.36 | 4:10.54 | 122286 | 141089
9 | 31:21.15 | 3:32.32 | 141090 | 157021
10 | 34:53.47 | 6:04.00 | 157022 | 184321
11 | 40:57.47 | 3:50.54 | 184322 | 201625
12 | 44:48.26 | 3:42.03 | 201626 | 218278
13 | 48:30.29 | 4:58.33 | 218279 | 240661
14 | 53:28.62 | 4:15.46 | 240662 | 259832
Характеристики диапазона извлечения и сообщения об ошибках
Выбранный диапазон
Имя файла U:\Downloads\Прием\Martin KEsici 2005\Martin Kesici - so what...!.wav
Пиковый уровень 96.6 %
Качество диапазона 99.9 %
CRC копии D7E966A1
Копирование... OK
Ошибок не произошло
Доп. информация:
Весной 2005 года, Тарья Турунен участвовала в дуэте «Leaving You for Me», с немецким исполнителем Martin Kesici, так же вышедшем на видео. …
Правила, инструкции, FAQ!!!
Торрент  Добавлен [26 мар 2019, 19:27] Скачать торрент Магнет ссылка
Скачать торрент
[ Размер 17.33 КБ / Просмотров 5 ]

Статус
Проверен 
 
Размер  420.92 МБ
Приватный: Нет (DHT включён)
.torrent скачан  0
 


     Отправить личное сообщение
   
Страница 1 из 1
Показать сообщения за:  Поле сортировки  
Начать новую тему Ответить на тему


Сейчас этот форум просматривают: нет зарегистрированных пользователей и гости: 0


Вы не можете начинать темы
Вы не можете отвечать на сообщения
Вы не можете редактировать свои сообщения
Вы не можете удалять свои сообщения
Вы не можете добавлять вложения

Перейти:  
cron