Начать новую тему Ответить на тему
Статистика раздачи
Размер: 330.42 МБ | Добавлен: 26 мар 2019, 19:14 | Скачали: 0
Сидеров: 0  [0 байт/сек]    Личеров: 0  [0 байт/сек]
Пред. тема | След. тема 

Автор
Сообщение

СообщениеДобавлено: 26 мар 2019, 19:14 

Ответить с цитатой 

Maroon 5 / Hands All Over [Thailand Edition]
Жанр: Pop, Rock
Страна-производитель диска: Thailand
Год издания диска: 2010
Издатель (лейбл): A&M / Octone Records
Номер по каталогу: 274 082-8
Страна: USA
Аудио кодек: FLAC (*.flac)
Тип рипа: image+.cue
Битрейт аудио: lossless
Продолжительность: 00:43:47
Источник (релизер): собственный CD
Наличие сканов в содержимом раздачи: нет
Треклист:
01. Misery (3:360
02. Give A Little More (3:00)
03. Stutter (3:17)
04. Don't Know Nothing (3:19)
05. Never Gonna Leave This Bed (3:17)
06. I Can't Lie (3:31)
07. Hands All Over (3:13)
08. How (3:37)
09. Get Back In My Life (3:38)
10. Just A Feeling (3:47)
11. Runaway (3:01)
12. Out Of Goodbyes (feat. Lady Antebellum) (3:17)
13. Crazy Little Thing Called Love (Acoustic) (3:13)
Код:
Exact Audio Copy V1.0 beta 1 from 15. November 2010
EAC extraction logfile from 4. January 2011, 0:02
Maroon 5 / Hands All Over [Thailand Edition]
Used drive  : PIONEER DVD-RW  DVRKD08   Adapter: 1  ID: 0
Read mode               : Secure
Utilize accurate stream : Yes
Defeat audio cache      : Yes
Make use of C2 pointers : No
Read offset correction                      : 48
Overread into Lead-In and Lead-Out          : No
Fill up missing offset samples with silence : Yes
Delete leading and trailing silent blocks   : No
Null samples used in CRC calculations       : Yes
Used interface                              : Native Win32 interface for Win NT & 2000
Used output format : Internal WAV Routines
Sample format      : 44.100 Hz; 16 Bit; Stereo
TOC of the extracted CD
     Track |   Start  |  Length  | Start sector | End sector
    ---------------------------------------------------------
        1  |  0:00.00 |  3:36.15 |         0    |    16214
        2  |  3:36.15 |  3:00.22 |     16215    |    29736
        3  |  6:36.37 |  3:17.19 |     29737    |    44530
        4  |  9:53.56 |  3:19.05 |     44531    |    59460
        5  | 13:12.61 |  3:17.18 |     59461    |    74253
        6  | 16:30.04 |  3:31.15 |     74254    |    90093
        7  | 20:01.19 |  3:12.64 |     90094    |   104557
        8  | 23:14.08 |  3:36.45 |    104558    |   120802
        9  | 26:50.53 |  3:37.67 |    120803    |   137144
       10  | 30:28.45 |  3:46.38 |    137145    |   154132
       11  | 34:15.08 |  3:01.15 |    154133    |   167722
       12  | 37:16.23 |  3:16.69 |    167723    |   182491
       13  | 40:33.17 |  3:14.11 |    182492    |   197052
Range status and errors
Selected range
     Filename C:\Users\Digital\Music\Maroon 5 - Hands All Over [Thailand Edition].wav
     Suspicious position 0:24:30 - 0:24:31
     Peak level 98.6 %
     Extraction speed 0.1 X
     Range quality 100.0 %
     Test CRC 6A600A7E
     Copy CRC 6A600A7E
     Copy finished
No errors occurred
AccurateRip summary
Track  1  accurately ripped (confidence 2)  [FBF09FC1]
Track  2  accurately ripped (confidence 2)  [EF3B8E12]
Track  3  accurately ripped (confidence 2)  [CF336494]
Track  4  accurately ripped (confidence 2)  [ADB5159A]
Track  5  accurately ripped (confidence 2)  [0A1D8297]
Track  6  accurately ripped (confidence 2)  [3B978209]
Track  7  accurately ripped (confidence 2)  [72FE89A9]
Track  8  accurately ripped (confidence 2)  [DE91AFE7]
Track  9  accurately ripped (confidence 2)  [8959E058]
Track 10  accurately ripped (confidence 2)  [365195B2]
Track 11  accurately ripped (confidence 2)  [E7ED1DBE]
Track 12  accurately ripped (confidence 2)  [FE68BA75]
Track 13  accurately ripped (confidence 2)  [C850DF19]
All tracks accurately ripped
End of status report
Код:
REM GENRE Pop
REM DATE 2010
REM DISCID B60A430D
REM COMMENT "ExactAudioCopy v1.0b1"
PERFORMER "Maroon 5"
TITLE "Hands All Over [Thailand Edition]"
FILE "Maroon 5 - Hands All Over [Thailand Edition].wav" WAVE
  TRACK 01 AUDIO
    TITLE "Misery"
    PERFORMER "Maroon 5"
    FLAGS DCP
    INDEX 01 00:00:00
  TRACK 02 AUDIO
    TITLE "Give A Little More"
    PERFORMER "Maroon 5"
    FLAGS DCP
    INDEX 01 03:36:15
  TRACK 03 AUDIO
    TITLE "Stutter"
    PERFORMER "Maroon 5"
    FLAGS DCP
    INDEX 01 06:36:37
  TRACK 04 AUDIO
    TITLE "Don't Know Nothing"
    PERFORMER "Maroon 5"
    FLAGS DCP
    INDEX 00 09:53:31
    INDEX 01 09:53:56
  TRACK 05 AUDIO
    TITLE "Never Gonna Leave This Bed"
    PERFORMER "Maroon 5"
    FLAGS DCP
    INDEX 01 13:12:61
  TRACK 06 AUDIO
    TITLE "I Can't Lie"
    PERFORMER "Maroon 5"
    FLAGS DCP
    INDEX 00 16:29:39
    INDEX 01 16:30:04
  TRACK 07 AUDIO
    TITLE "Hands All Over"
    PERFORMER "Maroon 5"
    FLAGS DCP
    INDEX 01 20:01:19
  TRACK 08 AUDIO
    TITLE "How"
    PERFORMER "Maroon 5"
    FLAGS DCP
    INDEX 01 23:14:08
  TRACK 09 AUDIO
    TITLE "Get Back In My Life"
    PERFORMER "Maroon 5"
    FLAGS DCP
    INDEX 01 26:50:53
  TRACK 10 AUDIO
    TITLE "Just A Feeling"
    PERFORMER "Maroon 5"
    FLAGS DCP
    INDEX 01 30:28:45
  TRACK 11 AUDIO
    TITLE "Runaway"
    PERFORMER "Maroon 5"
    FLAGS DCP
    INDEX 01 34:15:08
  TRACK 12 AUDIO
    TITLE "Out Of Goodbyes (with Lady Antebellum)"
    PERFORMER "Maroon 5"
    FLAGS DCP
    INDEX 01 37:16:23
  TRACK 13 AUDIO
    TITLE "Crazy Little Thing Called Love (Acoustic)"
    PERFORMER "Maroon 5"
    FLAGS DCP
    INDEX 00 40:32:68
    INDEX 01 40:33:17
Код:
AUDIOCHECKER v2.0 beta (build 457) - by Dester - opdester@freemail.hu
~~~~~~~~~~~~~~~~~~~~~~~~~~~~~~~~~~
-=== НЕ РЕДАКТИРУЙТЕ ЭТОТ ФАЙЛ! ===-
Путь: ...\Maroon 5 - Hands All Over [Thailand Edition] (2010)
1 -=- Maroon 5 - Hands All Over [Thailand Edition].flac -=- CDDA (100%)
229652980
Maroon 5 — американская поп-рок-группа, образована в Лос-Анджелесе,штата Калифорния. Группа образовалась в 1995 году под названием Цветы Кары (Kara's Flowers).В ее состав входили вокалист и ритм-гитарист Адам Левин,клавишник Джесси Кармайкл, бас-гитарист Микки Медден и ударник Райян Дюсик. В 1997 году вышел первый альбом группы: "Четвертый мир" (The Fourth World).А в 2001 году с приходом гитариста Джеймса Валентайна, группу переименовали на Maroon 5.Следующий год в жизни музыкантов был отмечен выходом дебютного альбома Songs about Jane. Среди наиболее известных хитов: "Harder to Breathe", "This Love", "She Will Be Loved" and "Sunday Morning". Этот альбом имел огромный успех и стал золотым, платиновым и мультиплатиновым во многих странаx. В 2003-2005 годах прошёл первый концертный тур группы, в поддержку альбома Songs about Jane, после чего был выпущен первый концертный альбом группы Live - Friday the 13th. В сентябре 2006 группу покинул ударник Райан Дазик, и его место занял Мэтт Флинн. Уже имея статус звёздной группы, Maroon 5 выпускают свой второй студийный альбом It Won't Be Soon Before Long в мае 2007, пять лет спустя после выхода Songs about Jane. Второй альбом группы дебютировал на первом месте в списке Billboard 200. Альбом получил платиновую сертификацию, и только в США было продано около 1,6 миллиона его копий. Летом 2007 был организован новый концертный тур группы (вместе с The Hives) по Северной Америке.
What critics think:
From All Music Guide: Doubling down on the blue-eyed soul that’s always been their cornerstone, Maroon 5 up the ante on Hands All Over, stripping their rock to the bare minimum, giving every song, even the power ballads, an immaculate tight groove. It is the exact opposite move expected from the hiring of superstar producer Robert John “Mutt” Lange, the man responsible for some of the greatest hard rock and heavy metal albums in history, but Lange has a knack for focusing on the elements that define a band’s core character, and with Maroon 5 he’s realized how Adam Levine possesses a relative lack of lead singer ego. He is undoubtedly the superstar of the outfit -- the skinny pretty boy with the high voice -- but all things considered, he disappears within his band, co-writing much of the album with keyboardist Jesse Carmichael, letting the song and vibe take precedence over performance. Lange preserves this dynamic, turning Maroon 5 into a clean, efficient machine. There is no fat on Hands All Over -- in its standard edition, its 12 songs run a crisp 40 minutes, with no song cresting over the four-minute mark -- and the sound is blindingly bright, almost incandescent in its spotless surfaces. As pristine as the sound is, Hands All Over is not sterile and Lange retains the group’s sense of soul. If anything, his precision is an asset, as it not only accentuates Maroon 5’s essential character as well-tailored lovermen, his focus echoes down to the songs themselves. Some of the cuts may not sink their hooks in immediately, but track for track Hands All Over is Maroon 5’s best album, capturing their character and craft in a cool, sleek package. [The album was also released in a Deluxe Edition with five bonus tracks.] ~ Stephen Thomas Erlewine
- Adam Levine / Адам Левин (Вокал, гитара)
- James Valentine / Джеймс Валентайн (гитара)
- Jesse Carmichael / Джесси Кармайкл (клавишные)
- Mickey Madden / Микки Мэдден (бас-гитара)
- Matt Flynn / Мэтт Флинн (ударные)
Правила, инструкции, FAQ!!!
Торрент  Добавлен [26 мар 2019, 19:14] Скачать торрент Магнет ссылка
Скачать торрент
[ Размер 13.85 КБ / Просмотров 0 ]

Статус
Проверен 
 
Размер  330.42 МБ
Приватный: Нет (DHT включён)
.torrent скачан  0
 


     Отправить личное сообщение
   
Страница 1 из 1
Показать сообщения за:  Поле сортировки  
Начать новую тему Ответить на тему


Сейчас этот форум просматривают: нет зарегистрированных пользователей и гости: 0


Вы не можете начинать темы
Вы не можете отвечать на сообщения
Вы не можете редактировать свои сообщения
Вы не можете удалять свои сообщения
Вы не можете добавлять вложения

Перейти:  
cron