Начать новую тему Ответить на тему
Статистика раздачи
Размер: 320.94 МБ | Добавлен: 05 май 2020, 10:43 | Скачали: 0
Сидеров: 0  [0 байт/сек]    Личеров: 0  [0 байт/сек]
Пред. тема | След. тема 

Автор
Сообщение

СообщениеДобавлено: 05 май 2020, 10:43 

Ответить с цитатой 

Marjo / Tant Qu'il Y Aura Des Enfants
Жанр: Pop-Rock
Носитель: CD
Страна-производитель диска (релиза): Canada
Год издания: 1990
Издатель (лейбл): Disques Musi-Art
Номер по каталогу: KDC 669
Аудиокодек: FLAC (*.flac)
Тип рипа: tracks+.cue
Продолжительность: 0:45:58.
Источник: собственный рип
Наличие сканов в содержимом раздачи: да
Треклист:
01. A bout de ciel [0:03:37.22]
02. Je sais je sais [0:04:19.68]
03. Crazy Notions [0:05:00.07]
04. Tant qu'il y aura des enfants [0:05:17.03]
05. Provocante [0:04:42.05]
06. Entre avec moi [0:04:32.05]
07. Y'a des matins [0:04:24.42]
08. Ailleurs [0:07:18.63]
09. Elle disait [0:04:49.20]
10. Ou sont ces mots [0:01:57.02]
Код:
Exact Audio Copy V1.3 from 2. September 2016
Отчёт EAC об извлечении, выполненном 29. марта 2020, 19:55
Marjo / Tant Qu'il Y Aura Des Enfants
Дисковод: ASUS    DRW-1814BLT   Adapter: 1  ID: 0
Режим чтения                 : Достоверность
Использование точного потока : Да
Отключение кэша аудио        : Да
Использование указателей C2  : Нет
Коррекция смещения при чтении                     : 6
Способность читать области Lead-in и Lead-out     : Нет
Заполнение пропущенных сэмплов тишиной            : Да
Удаление блоков с тишиной в начале и конце        : Нет
При вычислениях CRC использовались нулевые сэмплы : Да
Интерфейс                                         : Встроенный Win32-интерфейс для Win NT/2000
Обработка зазоров                                 : Добавлено к предыдущему треку
Выходной формат          : Пользовательский кодировщик
Выбранный битрейт        : 128 kBit/s
Качество                 : Высокий
Добавление ID3-тега      : Нет
Утилита сжатия           : C:\Program Files (x86)\Exact Audio Copy\Flac\flac.exe
Дополнительные параметры : -V -8 -T "Genre=%genre%" -T "Artist=%artist%" -T "Title=%title%" -T "Album=%albumtitle%" -T "Date=%year%" -T "Tracknumber=%tracknr%" -T "Comment=EAC1.0b2 FLAC -8" %source%
TOC извлечённого CD
     Трек |   Старт  | Длительность | Начальный сектор | Конечный сектор
    ---------------------------------------------------------------------
       1  |  0:00.00 |    3:37.22   |           0      |      16296
       2  |  3:37.22 |    4:19.68   |       16297      |      35789
       3  |  7:57.15 |    5:00.07   |       35790      |      58296
       4  | 12:57.22 |    5:17.03   |       58297      |      82074
       5  | 18:14.25 |    4:42.05   |       82075      |     103229
       6  | 22:56.30 |    4:32.05   |      103230      |     123634
       7  | 27:28.35 |    4:24.42   |      123635      |     143476
       8  | 31:53.02 |    7:18.63   |      143477      |     176389
       9  | 39:11.65 |    4:49.20   |      176390      |     198084
      10  | 44:01.10 |    1:57.02   |      198085      |     206861
Трек  1
     Имя файла R:\Раздача 86\Marjo - 1990 - Tant Qu'il Y Aura Des Enfants\01 A bout de ciel.wav
     Длина предзазора  0:00:02.00
     Пиковый уровень 94.6 %
     Скорость извлечения 5.0 X
     Качество трека 100.0 %
     CRC теста E5C7B2C2
     CRC копии E5C7B2C2
     Точное извлечение (достоверность 6)  [094D3D87]  (AR v2)
     Копирование... OK
Трек  2
     Имя файла R:\Раздача 86\Marjo - 1990 - Tant Qu'il Y Aura Des Enfants\02 Je sais je sais.wav
     Длина предзазора  0:00:02.40
     Пиковый уровень 94.6 %
     Скорость извлечения 1.8 X
     Качество трека 99.9 %
     CRC теста AAE7A660
     CRC копии AAE7A660
     Точное извлечение (достоверность 6)  [3D5CC7BF]  (AR v2)
     Копирование... OK
Трек  3
     Имя файла R:\Раздача 86\Marjo - 1990 - Tant Qu'il Y Aura Des Enfants\03 Crazy Notions.wav
     Длина предзазора  0:00:00.10
     Пиковый уровень 94.6 %
     Скорость извлечения 2.0 X
     Качество трека 99.9 %
     CRC теста FAB5A231
     CRC копии FAB5A231
     Точное извлечение (достоверность 6)  [3CA4681E]  (AR v2)
     Копирование... OK
Трек  4
     Имя файла R:\Раздача 86\Marjo - 1990 - Tant Qu'il Y Aura Des Enfants\04 Tant qu'il y aura des enfants.wav
     Длина предзазора  0:00:02.05
     Пиковый уровень 96.3 %
     Скорость извлечения 2.2 X
     Качество трека 99.9 %
     CRC теста 4448A8DC
     CRC копии 4448A8DC
     Точное извлечение (достоверность 6)  [20995EFB]  (AR v2)
     Копирование... OK
Трек  5
     Имя файла R:\Раздача 86\Marjo - 1990 - Tant Qu'il Y Aura Des Enfants\05 Provocante.wav
     Длина предзазора  0:00:01.13
     Пиковый уровень 94.6 %
     Скорость извлечения 7.3 X
     Качество трека 100.0 %
     CRC теста DC1ABD35
     CRC копии DC1ABD35
     Точное извлечение (достоверность 6)  [E532D566]  (AR v2)
     Копирование... OK
Трек  6
     Имя файла R:\Раздача 86\Marjo - 1990 - Tant Qu'il Y Aura Des Enfants\06 Entre avec moi.wav
     Длина предзазора  0:00:03.45
     Пиковый уровень 94.6 %
     Скорость извлечения 7.7 X
     Качество трека 100.0 %
     CRC теста FEFAA44D
     CRC копии FEFAA44D
     Точное извлечение (достоверность 6)  [E5D2DA5B]  (AR v2)
     Копирование... OK
Трек  7
     Имя файла R:\Раздача 86\Marjo - 1990 - Tant Qu'il Y Aura Des Enfants\07 Y'a des matins.wav
     Длина предзазора  0:00:00.38
     Пиковый уровень 94.6 %
     Скорость извлечения 8.0 X
     Качество трека 100.0 %
     CRC теста 7F4438A3
     CRC копии 7F4438A3
     Точное извлечение (достоверность 6)  [7816D340]  (AR v2)
     Копирование... OK
Трек  8
     Имя файла R:\Раздача 86\Marjo - 1990 - Tant Qu'il Y Aura Des Enfants\08 Ailleurs.wav
     Длина предзазора  0:00:01.27
     Пиковый уровень 94.6 %
     Скорость извлечения 8.9 X
     Качество трека 100.0 %
     CRC теста FDE36BE6
     CRC копии FDE36BE6
     Точное извлечение (достоверность 6)  [395BB941]  (AR v2)
     Копирование... OK
Трек  9
     Имя файла R:\Раздача 86\Marjo - 1990 - Tant Qu'il Y Aura Des Enfants\09 Elle disait.wav
     Длина предзазора  0:00:02.33
     Пиковый уровень 94.6 %
     Скорость извлечения 9.0 X
     Качество трека 100.0 %
     CRC теста 2DC1C368
     CRC копии 2DC1C368
     Точное извлечение (достоверность 6)  [46B3A8FA]  (AR v2)
     Копирование... OK
Трек 10
     Имя файла R:\Раздача 86\Marjo - 1990 - Tant Qu'il Y Aura Des Enfants\10 Ou sont ces mots.wav
     Длина предзазора  0:00:04.08
     Пиковый уровень 71.6 %
     Скорость извлечения 7.2 X
     Качество трека 100.0 %
     CRC теста 3FC89EB3
     CRC копии 3FC89EB3
     Точное извлечение (достоверность 6)  [511BC0B6]  (AR v2)
     Копирование... OK
Все треки извлечены точно
Ошибок не произошло
Конец отчёта
---- CUETools DB Plugin V2.1.6
[CTDB TOCID: 6BftUI6A29Bhg4M3Pw.PL5NFclk-] found
Submit result: 6BftUI6A29Bhg4M3Pw.PL5NFclk- has been confirmed
Track | CTDB Status
  1   | (37/37) Accurately ripped
  2   | (37/37) Accurately ripped
  3   | (37/37) Accurately ripped
  4   | (36/37) Accurately ripped
  5   | (37/37) Accurately ripped
  6   | (37/37) Accurately ripped
  7   | (37/37) Accurately ripped
  8   | (37/37) Accurately ripped
  9   | (37/37) Accurately ripped
 10   | (36/37) Accurately ripped
==== Контрольная сумма отчёта 01F2863901380AF1BD7E6DA9DFC292E679D8898A4AE38F0C81476C9B64FCB08A ====
Код:
REM GENRE Pop/Rock
REM DATE 1990
REM DISCID 940AC60A
REM COMMENT "ExactAudioCopy v1.3"
PERFORMER "Marjo"
TITLE "Tant Qu'il Y Aura Des Enfants"
REM COMPOSER ""
FILE "01 A bout de ciel.wav" WAVE
  TRACK 01 AUDIO
    TITLE "A bout de ciel"
    PERFORMER "Marjo"
    REM COMPOSER ""
    INDEX 01 00:00:00
  TRACK 02 AUDIO
    TITLE "Je sais je sais"
    PERFORMER "Marjo"
    REM COMPOSER ""
    INDEX 00 03:34:57
FILE "02 Je sais je sais.wav" WAVE
    INDEX 01 00:00:00
  TRACK 03 AUDIO
    TITLE "Crazy Notions"
    PERFORMER "Marjo"
    REM COMPOSER ""
    INDEX 00 04:19:58
FILE "03 Crazy Notions.wav" WAVE
    INDEX 01 00:00:00
  TRACK 04 AUDIO
    TITLE "Tant qu'il y aura des enfants"
    PERFORMER "Marjo"
    REM COMPOSER ""
    INDEX 00 04:58:02
FILE "04 Tant qu'il y aura des enfants.wav" WAVE
    INDEX 01 00:00:00
  TRACK 05 AUDIO
    TITLE "Provocante"
    PERFORMER "Marjo"
    REM COMPOSER ""
    INDEX 00 05:15:65
FILE "05 Provocante.wav" WAVE
    INDEX 01 00:00:00
  TRACK 06 AUDIO
    TITLE "Entre avec moi"
    PERFORMER "Marjo"
    REM COMPOSER ""
    INDEX 00 04:38:35
FILE "06 Entre avec moi.wav" WAVE
    INDEX 01 00:00:00
  TRACK 07 AUDIO
    TITLE "Y'a des matins"
    PERFORMER "Marjo"
    REM COMPOSER ""
    INDEX 00 04:31:42
FILE "07 Y'a des matins.wav" WAVE
    INDEX 01 00:00:00
  TRACK 08 AUDIO
    TITLE "Ailleurs"
    PERFORMER "Marjo"
    REM COMPOSER ""
    INDEX 00 04:23:15
FILE "08 Ailleurs.wav" WAVE
    INDEX 01 00:00:00
  TRACK 09 AUDIO
    TITLE "Elle disait"
    PERFORMER "Marjo"
    REM COMPOSER ""
    INDEX 00 07:16:30
FILE "09 Elle disait.wav" WAVE
    INDEX 01 00:00:00
  TRACK 10 AUDIO
    TITLE "Ou sont ces mots"
    PERFORMER "Marjo"
    REM COMPOSER ""
    INDEX 00 04:45:12
FILE "10 Ou sont ces mots.wav" WAVE
    INDEX 01 00:00:00
Правила, инструкции, FAQ!!!
Торрент  Добавлен [05 май 2020, 10:43] Скачать торрент Магнет ссылка
Скачать торрент
[ Размер 14.47 КБ / Просмотров 8 ]

Статус
Проверен 
 
Размер  320.94 МБ
Приватный: Нет (DHT включён)
.torrent скачан  0
 


     Отправить личное сообщение
   
Страница 1 из 1
Показать сообщения за:  Поле сортировки  
Начать новую тему Ответить на тему


Сейчас этот форум просматривают: нет зарегистрированных пользователей и гости: 0


Вы не можете начинать темы
Вы не можете отвечать на сообщения
Вы не можете редактировать свои сообщения
Вы не можете удалять свои сообщения
Вы не можете добавлять вложения

Перейти:  
cron