Начать новую тему Ответить на тему
Статистика раздачи
Размер: 230.87 МБ | Добавлен: 26 мар 2019, 20:00 | Скачали: 0
Сидеров: 0  [0 байт/сек]    Личеров: 0  [0 байт/сек]
Пред. тема | След. тема 

Автор
Сообщение

СообщениеДобавлено: 26 мар 2019, 20:00 

Ответить с цитатой 

Magic Bubble - Magic Bubble
Жанр: Pop Rock
Страна-производитель диска: UK
Год издания диска: 2008
Издатель (лейбл): Fallout
Номер по каталогу: FOCD2093
Страна: Сanada
Аудиокодек: FLAC (*.flac)
Тип рипа: tracks+.cue
Битрейт аудио: lossless
Продолжительность: 00:39:49
Источник (релизер): Vicente
Наличие сканов в содержимом раздачи:
Треклист:
01. I'm Alive 02:32
02. Whiskey Fire 02:38
03. If I Should Ever Love Again 03:17
04. Changes 03:29
05. Cry Cry 04:35
06. Circles (Lonely Wind) 02:45
07. Sunshine Man 02:39
08. Back to Toronto 02:32
09. Me & Mr. Hohner 03:35
10. Summertime 06:08
Bonus Tracks:
11. Ohio Sun 02:57
12. Who Turned the World Around? 02:42
Код:
Exact Audio Copy V0.99 prebeta 4 from 23. January 2008
EAC extraction logfile from 2. December 2010, 7:05
Magic Bubble / Magic Bubble
Used drive  : PIONEER DVD-RW  DVR-111   Adapter: 1  ID: 0
Read mode               : Secure
Utilize accurate stream : Yes
Defeat audio cache      : Yes
Make use of C2 pointers : No
Read offset correction                      : 48
Overread into Lead-In and Lead-Out          : No
Fill up missing offset samples with silence : Yes
Delete leading and trailing silent blocks   : No
Null samples used in CRC calculations       : Yes
Used interface                              : Native Win32 interface for Win NT & 2000
Gap handling                                : Appended to previous track
Used output format              : User Defined Encoder
Selected bitrate                : 128 kBit/s
Quality                         : High
Add ID3 tag                     : No
Command line compressor         : C:\Program Files\FLAC\flac.exe
Additional command line options : -V -5 -T "artist=%a" -T "title=%t" -T "album=%g" -T "date=%y" -T "tracknumber=%n" -T "genre=%m" -T comment="%e" -T "comment=Exact Audio Copy (Secure Mode)" %s --verify
TOC of the extracted CD
     Track |   Start  |  Length  | Start sector | End sector
    ---------------------------------------------------------
        1  |  0:00.00 |  2:31.67 |         0    |    11391
        2  |  2:31.67 |  2:37.46 |     11392    |    23212
        3  |  5:09.38 |  3:16.72 |     23213    |    37984
        4  |  8:26.35 |  3:28.59 |     37985    |    53643
        5  | 11:55.19 |  4:35.20 |     53644    |    74288
        6  | 16:30.39 |  2:44.43 |     74289    |    86631
        7  | 19:15.07 |  2:38.40 |     86632    |    98521
        8  | 21:53.47 |  2:31.54 |     98522    |   109900
        9  | 24:25.26 |  3:34.59 |    109901    |   126009
       10  | 28:00.10 |  6:08.19 |    126010    |   153628
       11  | 34:08.29 |  2:56.45 |    153629    |   166873
       12  | 37:04.74 |  2:42.20 |    166874    |   179043
Track  1
     Filename D:\+Request\+Vicente\New1\Magic Bubble - Magic Bubble 1969 (flac)\01.wav
     Pre-gap length  0:00:02.00
     Peak level 98.6 %
     Track quality 100.0 %
     Copy CRC F90981AC
     Copy OK
Track  2
     Filename D:\+Request\+Vicente\New1\Magic Bubble - Magic Bubble 1969 (flac)\02.wav
     Pre-gap length  0:00:02.00
     Peak level 98.6 %
     Track quality 100.0 %
     Copy CRC 3E2E8E96
     Copy OK
Track  3
     Filename D:\+Request\+Vicente\New1\Magic Bubble - Magic Bubble 1969 (flac)\03.wav
     Pre-gap length  0:00:02.00
     Peak level 90.0 %
     Track quality 100.0 %
     Copy CRC 3374E95F
     Copy OK
Track  4
     Filename D:\+Request\+Vicente\New1\Magic Bubble - Magic Bubble 1969 (flac)\04.wav
     Pre-gap length  0:00:02.00
     Peak level 98.5 %
     Track quality 100.0 %
     Copy CRC 94B85A9E
     Copy OK
Track  5
     Filename D:\+Request\+Vicente\New1\Magic Bubble - Magic Bubble 1969 (flac)\05.wav
     Pre-gap length  0:00:02.00
     Peak level 98.6 %
     Track quality 99.9 %
     Copy CRC D8B325E3
     Copy OK
Track  6
     Filename D:\+Request\+Vicente\New1\Magic Bubble - Magic Bubble 1969 (flac)\06.wav
     Pre-gap length  0:00:02.00
     Peak level 98.5 %
     Track quality 100.0 %
     Copy CRC C9B8CCCC
     Copy OK
Track  7
     Filename D:\+Request\+Vicente\New1\Magic Bubble - Magic Bubble 1969 (flac)\07.wav
     Pre-gap length  0:00:02.00
     Peak level 98.6 %
     Track quality 100.0 %
     Copy CRC 2772D1F9
     Copy OK
Track  8
     Filename D:\+Request\+Vicente\New1\Magic Bubble - Magic Bubble 1969 (flac)\08.wav
     Pre-gap length  0:00:02.00
     Peak level 98.5 %
     Track quality 100.0 %
     Copy CRC 05831DF7
     Copy OK
Track  9
     Filename D:\+Request\+Vicente\New1\Magic Bubble - Magic Bubble 1969 (flac)\09.wav
     Pre-gap length  0:00:02.00
     Peak level 98.5 %
     Track quality 100.0 %
     Copy CRC 4BA1C9B5
     Copy OK
Track 10
     Filename D:\+Request\+Vicente\New1\Magic Bubble - Magic Bubble 1969 (flac)\10.wav
     Pre-gap length  0:00:02.00
     Peak level 87.3 %
     Track quality 99.9 %
     Copy CRC 2BB91098
     Copy OK
Track 11
     Filename D:\+Request\+Vicente\New1\Magic Bubble - Magic Bubble 1969 (flac)\11.wav
     Pre-gap length  0:00:02.00
     Peak level 98.5 %
     Track quality 100.0 %
     Copy CRC C8C03EA0
     Copy OK
Track 12
     Filename D:\+Request\+Vicente\New1\Magic Bubble - Magic Bubble 1969 (flac)\12.wav
     Pre-gap length  0:00:02.00
     Peak level 98.5 %
     Track quality 100.0 %
     Copy CRC FCE3DAFF
     Copy OK
No errors occurred
End of status report
Код:
REM DATE 1969
REM DISCID 8E09530C
REM COMMENT "ExactAudioCopy v0.99pb4"
PERFORMER "Magic Bubble"
TITLE "Magic Bubble"
FILE "01. I'm Alive.wav" WAVE
  TRACK 01 AUDIO
    TITLE "I'm Alive"
    PERFORMER "Magic Bubble"
    FLAGS DCP
    INDEX 01 00:00:00
  TRACK 02 AUDIO
    TITLE "Whiskey Fire"
    PERFORMER "Magic Bubble"
    FLAGS DCP
    INDEX 00 02:29:67
FILE "02. Whiskey Fire.wav" WAVE
    INDEX 01 00:00:00
  TRACK 03 AUDIO
    TITLE "If I Should Ever Love Again"
    PERFORMER "Magic Bubble"
    FLAGS DCP
    INDEX 00 02:35:46
FILE "03. If I Should Ever Love Again.wav" WAVE
    INDEX 01 00:00:00
  TRACK 04 AUDIO
    TITLE "Changes"
    PERFORMER "Magic Bubble"
    FLAGS DCP
    INDEX 00 03:14:72
FILE "04. Changes.wav" WAVE
    INDEX 01 00:00:00
  TRACK 05 AUDIO
    TITLE "Cry Cry"
    PERFORMER "Magic Bubble"
    FLAGS DCP
    INDEX 00 03:26:59
FILE "05. Cry Cry.wav" WAVE
    INDEX 01 00:00:00
  TRACK 06 AUDIO
    TITLE "Circles (Lonely Wind)"
    PERFORMER "Magic Bubble"
    FLAGS DCP
    INDEX 00 04:33:20
FILE "06. Circles (Lonely Wind).wav" WAVE
    INDEX 01 00:00:00
  TRACK 07 AUDIO
    TITLE "Sunshine Man"
    PERFORMER "Magic Bubble"
    FLAGS DCP
    INDEX 00 02:42:43
FILE "07. Sunshine Man.wav" WAVE
    INDEX 01 00:00:00
  TRACK 08 AUDIO
    TITLE "Back to Toronto"
    PERFORMER "Magic Bubble"
    FLAGS DCP
    INDEX 00 02:36:40
FILE "08. Back to Toronto.wav" WAVE
    INDEX 01 00:00:00
  TRACK 09 AUDIO
    TITLE "Me & Mr. Hohner"
    PERFORMER "Magic Bubble"
    FLAGS DCP
    INDEX 00 02:29:54
FILE "09. Me & Mr. Hohner.wav" WAVE
    INDEX 01 00:00:00
  TRACK 10 AUDIO
    TITLE "Summertime"
    PERFORMER "Magic Bubble"
    FLAGS DCP
    INDEX 00 03:32:59
FILE "10. Summertime.wav" WAVE
    INDEX 01 00:00:00
  TRACK 11 AUDIO
    TITLE "Ohio Sun"
    PERFORMER "Magic Bubble"
    FLAGS DCP
    INDEX 00 06:06:19
FILE "11. Ohio Sun.wav" WAVE
    INDEX 01 00:00:00
  TRACK 12 AUDIO
    TITLE "Who Turned the World Around?"
    PERFORMER "Magic Bubble"
    FLAGS DCP
    INDEX 00 02:54:45
FILE "12. Who Turned the World Around?.wav" WAVE
    INDEX 01 00:00:00
Код:
-----------------------
DON'T MODIFY THIS FILE
-----------------------
PERFORMER: auCDtect Task Manager, ver. 1.5.1RC4 build 1.5.1.5
Copyright (c) 2008-2010 y-soft. All rights reserved
[url=http://y-soft.org]http://y-soft.org[/url]
ANALYZER: auCDtect: CD records authenticity detector, version 0.8.2
Copyright (c) 2004 Oleg Berngardt. All rights reserved.
Copyright (c) 2004 Alexander Djourik. All rights reserved.
FILE: 12. Who Turned the World Around.flac
  Size: 15448374 Hash: 3AECF69652E7A9960053D695BDE5083A Accuracy: -m0
  Conclusion: CDDA 99%
  Signature: 882C82592DDFD334A8C43288D6E3670DE592469D
FILE: 11. Ohio Sun.flac
  Size: 18212803 Hash: C5CA76B970FD8D1441E5B96212F1BAFA Accuracy: -m0
  Conclusion: CDDA 100%
  Signature: 78DDD633471D5422A9AD51CA03EBBE382454164A
FILE: 10. Summertime.flac
  Size: 33199526 Hash: 5C2FFA860F0959C8C240FA61A78A0C8A Accuracy: -m0
  Conclusion: CDDA 100%
  Signature: B6456EC2C88732B0C892051DE5974D4BCA11BD1D
FILE: 09. Me & Mr. Hohner.flac
  Size: 21673598 Hash: 128D63E85D81CC1E2A0E8FDDAB09A67C Accuracy: -m0
  Conclusion: CDDA 100%
  Signature: A9385CD557822C0057074D1046B5A3764ED9AA47
FILE: 08. Back to Toronto.flac
  Size: 15230322 Hash: 42AE9CA810378F7FC515E9980E39E36F Accuracy: -m0
  Conclusion: CDDA 100%
  Signature: 8E28EFE27BD290F3F838C3CAB9209A0C93AD963B
FILE: 07. Sunshine Man.flac
  Size: 17141695 Hash: 327EFADFDB4DF83AAAE34A833F6E537A Accuracy: -m0
  Conclusion: CDDA 100%
  Signature: 1BBE505073E455B8BA4B403257820E2C7E31697F
FILE: 06. Circles (Lonely Wind).flac
  Size: 17423784 Hash: C05C3D2C95966AD614CC5C55E3916565 Accuracy: -m0
  Conclusion: CDDA 100%
  Signature: F61237755E7255BBC78E38ADF599E30A2C4BB766
FILE: 05. Cry Cry.flac
  Size: 27930552 Hash: 9AC0E8C88A8D65C82E86BAC291F1AB42 Accuracy: -m0
  Conclusion: CDDA 100%
  Signature: D2B347D5AB130624D6F10CF775C8BFCB61BCA130
FILE: 04. Changes.flac
  Size: 22563506 Hash: 5B72CB80CFBB942CD77FB16686207BCF Accuracy: -m0
  Conclusion: CDDA 100%
  Signature: 91B19DA02C6DB4A4FA8D1DBC2B9936DC7C4578F4
FILE: 03. If I Should Ever Love Again.flac
  Size: 19444026 Hash: 849E54CE3F092F12AAF976B79DA55BB4 Accuracy: -m0
  Conclusion: CDDA 100%
  Signature: E6D0A541FEAC7D114B4FEFC1EFAD5559FDB40CFC
FILE: 02. Whiskey Fire.flac
  Size: 16359065 Hash: 43F66899BFEBFC82ED76D4C48CBB646D Accuracy: -m0
  Conclusion: CDDA 99%
  Signature: CCA52A89CB5F671E09B8C666E40312699886496F
FILE: 01. I'm Alive.flac
  Size: 14402488 Hash: 6062CC354AE0A504A50BF19CB5329E86 Accuracy: -m0
  Conclusion: CDDA 100%
  Signature: 85096EAB9CE18AEF25958646D5DEFB9D99CF1017
Код:
[CUETools log; Date: 03.07.2014 14:07:19; Version: 2.1.4]
[CTDB TOCID: K.aeufQu7YWY7hqPIos7DllEC4s-] disk not present in database.
[AccurateRip ID: 00111b6f-00a2149a-8e09530c] disk not present in database.
Track Peak [ CRC32  ] [W/O NULL] [  LOG   ]
 --   98,6 [7EB4D6D7] [F5236A69]
 01   98,6 [F90981AC] [2E062BAD]   CRC32
 02   98,6 [3E2E8E96] [CED479AD]   CRC32
 03   90,0 [3374E95F] [B332B6A9]   CRC32
 04   98,5 [94B85A9E] [669782FF]   CRC32
 05   98,6 [D8B325E3] [6D688A39]   CRC32
 06   98,5 [C9B8CCCC] [9596F6FC]   CRC32
 07   98,6 [2772D1F9] [8969A9F1]   CRC32
 08   98,5 [05831DF7] [86544D5A]   CRC32
 09   98,5 [4BA1C9B5] [93A0F9EB]   CRC32
 10   87,3 [2BB91098] [513B17AE]   CRC32
 11   98,5 [C8C03EA0] [E68AE72B]   CRC32
 12   98,5 [FCE3DAFF] [3E368A76]   CRC32
Доп. информация
Rita Rondell - vocal
Frank Rondell - vocal
Paul Benton - organ,piano
Brian Kirkwood - bass
Wade Brown - acoustic and electric guitars
Sonny J.Milne - drums
Группа образовалась в городе Гамильтон, Онтарио в Канаде в начале 1969 года, как аккомпанирующий состав дуэта брата и сестры Rondell. Группа просуществовала 2 года, выпустила единственный альбом и три сингла. Последний сингл с песнями Who Turned The World Around/Ohio And Sun дошёл до 2-го места в канадском чарте и до 11-го в американском. Эти песни готовились ко второму альбому, но брат с сестрой переругались как кошка с собакой и группа распалась. Френк присоединился к Custer's Last Band, а затем долго и успешно выступал с собственным шоу "Tribute To Ray Charles". Но сестра превзошла брата - после распада MAGIC BUBBLE она присоединилась к Battle Axe (под псевдонимом Marcus), затем несколько лет жила с мужем в Италии. После возвращения в Канаду начала успешную карьеру блюз-роковой певицы и гитаристки под фамилией мужа Rita Chiarelli под которой она и выступает до сих пор.
Правила, инструкции, FAQ!!!
Торрент  Добавлен [26 мар 2019, 20:00] Скачать торрент Магнет ссылка
Скачать торрент
[ Размер 19.54 КБ / Просмотров 0 ]

Статус
Проверен 
 
Размер  230.87 МБ
Приватный: Нет (DHT включён)
.torrent скачан  0
 


     Отправить личное сообщение
   
Страница 1 из 1
Показать сообщения за:  Поле сортировки  
Начать новую тему Ответить на тему


Сейчас этот форум просматривают: нет зарегистрированных пользователей и гости: 0


Вы не можете начинать темы
Вы не можете отвечать на сообщения
Вы не можете редактировать свои сообщения
Вы не можете удалять свои сообщения
Вы не можете добавлять вложения

Перейти:  
cron