Начать новую тему Ответить на тему
Статистика раздачи
Размер: 1.61 ГБ | Добавлен: 26 мар 2019, 19:52 | Скачали: 0
Сидеров: 1  [0 байт/сек]    Личеров: 0  [0 байт/сек]
Пред. тема | След. тема 

Автор
Сообщение

СообщениеДобавлено: 26 мар 2019, 19:52 

Ответить с цитатой 

Luxuslarm (Luxuslärm) / 4 Albums
Жанр: Pop-rock
Носитель: CD
Страна-производитель диска: Germany
Год издания: 2008-2014
Издатель (лейбл): Die Opposition
Страна: Germany
Аудиокодек: FLAC (*.flac)
Тип рипа: tracks+.cue
Битрейт аудио: lossless
Источник (релизер): мой рип
Наличие сканов в содержимом раздачи: частично
#777Треклист:
Luxuslärm - "Alles was du willst" (2014)
Tracks: 14
Total time: 53:16
Year: 2014
Disc-ID: data / c60c820e
1. Gib mir einen Grund zu bleiben 3:46
2. Ein neuer Morgen 3:26
3. Verschenkt 3:20
4. ..., dass du bleibst 4:02
5. Einmal im Leben 3:55
6. Regen, der nach oben fällt 3:55
7. Yeah, Yeah, Yeah (So könnte es immer sein) 3:33
8. Dann hälst du die Zeit an 3:28
9. Druchdrehen 3:16
10. Das letzte Mal 3:17
11. Alles was du willst 3:45
12. Weisse Fahne 3:43
13. Thelma & Louise 5:37
14. Nach einer wahren Geschichte 4:13
Код:
Exact Audio Copy V1.0 beta 3 from 29. August 2011
EAC extraction logfile from 17. May 2014, 19:25
Luxuslaerm / Alles was du willst
Used drive  : PLEXTOR CD-R   PX-W4012A   Adapter: 2  ID: 0
Read mode               : Secure
Utilize accurate stream : Yes
Defeat audio cache      : Yes
Make use of C2 pointers : No
Read offset correction                      : 98
Overread into Lead-In and Lead-Out          : No
Fill up missing offset samples with silence : Yes
Delete leading and trailing silent blocks   : No
Null samples used in CRC calculations       : Yes
Used interface                              : Native Win32 interface for Win NT & 2000
Gap handling                                : Appended to previous track
Used output format              : User Defined Encoder
Selected bitrate                : 1024 kBit/s
Quality                         : High
Add ID3 tag                     : No
Command line compressor         : C:\Program Files (x86)\Exact Audio Copy\Flac\flac.exe
Additional command line options : -V -8 -T "Genre=%genre%" -T "Artist=%artist%" -T "Title=%title%" -T "Album=%albumtitle%" -T "Date=%year%" -T "Tracknumber=%tracknr%" -T "Comment=%comment%" %source%
TOC of the extracted CD
     Track |   Start  |  Length  | Start sector | End sector
    ---------------------------------------------------------
        1  |  0:00.00 |  3:46.52 |         0    |    17001
        2  |  3:46.52 |  3:26.45 |     17002    |    32496
        3  |  7:13.22 |  3:20.52 |     32497    |    47548
        4  | 10:33.74 |  4:02.66 |     47549    |    65764
        5  | 14:36.65 |  3:55.09 |     65765    |    83398
        6  | 18:31.74 |  3:55.45 |     83399    |   101068
        7  | 22:27.44 |  3:33.27 |    101069    |   117070
        8  | 26:00.71 |  3:28.35 |    117071    |   132705
        9  | 29:29.31 |  3:16.73 |    132706    |   147478
       10  | 32:46.29 |  3:17.07 |    147479    |   162260
       11  | 36:03.36 |  3:45.37 |    162261    |   179172
       12  | 39:48.73 |  3:43.32 |    179173    |   195929
       13  | 43:32.30 |  5:37.19 |    195930    |   221223
       14  | 49:09.49 |  4:13.15 |    221224    |   240213
Track  1
     Filename C:\H\Luxuslaerm flac\01 Gib mir einen Grund zu bleiben.wav
     Pre-gap length  0:00:02.00
     Peak level 98.7 %
     Extraction speed 8.4 X
     Track quality 100.0 %
     Test CRC 12E917D0
     Copy CRC 12E917D0
     Accurately ripped (confidence 2)  [50188175]  (AR v1)
     Copy OK
Track  2
     Filename C:\H\Luxuslaerm flac\02 Ein neuer Morgen.wav
     Peak level 98.7 %
     Extraction speed 9.2 X
     Track quality 100.0 %
     Test CRC 58E9280A
     Copy CRC 58E9280A
     Accurately ripped (confidence 2)  [8968E0B8]  (AR v1)
     Copy OK
Track  3
     Filename C:\H\Luxuslaerm flac\03 Verschenkt.wav
     Peak level 98.7 %
     Extraction speed 9.8 X
     Track quality 100.0 %
     Test CRC 0A0AA807
     Copy CRC 0A0AA807
     Accurately ripped (confidence 2)  [22A55518]  (AR v1)
     Copy OK
Track  4
     Filename C:\H\Luxuslaerm flac\04 ..., dass du bleibst.wav
     Peak level 98.7 %
     Extraction speed 10.7 X
     Track quality 100.0 %
     Test CRC 241A105F
     Copy CRC 241A105F
     Accurately ripped (confidence 2)  [9CC7D530]  (AR v1)
     Copy OK
Track  5
     Filename C:\H\Luxuslaerm flac\05 Einmal im Leben.wav
     Peak level 98.7 %
     Extraction speed 11.4 X
     Track quality 100.0 %
     Test CRC 165233CD
     Copy CRC 165233CD
     Accurately ripped (confidence 2)  [A1AC2E38]  (AR v1)
     Copy OK
Track  6
     Filename C:\H\Luxuslaerm flac\06 Regen, der nach oben faellt.wav
     Peak level 98.7 %
     Extraction speed 12.0 X
     Track quality 100.0 %
     Test CRC 0B45E76B
     Copy CRC 0B45E76B
     Accurately ripped (confidence 2)  [38039AE0]  (AR v1)
     Copy OK
Track  7
     Filename C:\H\Luxuslaerm flac\07 Yeah, Yeah, Yeah (So koennte es immer sein).wav
     Peak level 98.7 %
     Extraction speed 12.3 X
     Track quality 100.0 %
     Test CRC 93049DE2
     Copy CRC 93049DE2
     Accurately ripped (confidence 2)  [9833ADB3]  (AR v1)
     Copy OK
Track  8
     Filename C:\H\Luxuslaerm flac\08 Dann haeltst du die Zeit an.wav
     Peak level 98.7 %
     Extraction speed 10.8 X
     Track quality 99.9 %
     Test CRC 62187F52
     Copy CRC 62187F52
     Accurately ripped (confidence 2)  [702BFFBC]  (AR v1)
     Copy OK
Track  9
     Filename C:\H\Luxuslaerm flac\09 Durchdrehen.wav
     Peak level 98.7 %
     Extraction speed 13.3 X
     Track quality 100.0 %
     Test CRC 584A5D31
     Copy CRC 584A5D31
     Accurately ripped (confidence 2)  [62DB2EEB]  (AR v1)
     Copy OK
Track 10
     Filename C:\H\Luxuslaerm flac\10 Das letzte Mal.wav
     Peak level 98.7 %
     Extraction speed 13.8 X
     Track quality 100.0 %
     Test CRC 2D934283
     Copy CRC 2D934283
     Accurately ripped (confidence 2)  [09CAAF85]  (AR v1)
     Copy OK
Track 11
     Filename C:\H\Luxuslaerm flac\11 Alles was du willst.wav
     Peak level 98.7 %
     Extraction speed 14.2 X
     Track quality 100.0 %
     Test CRC BE0BF22C
     Copy CRC BE0BF22C
     Accurately ripped (confidence 2)  [3FD65FDC]  (AR v1)
     Copy OK
Track 12
     Filename C:\H\Luxuslaerm flac\12 Weiße Fahne.wav
     Peak level 98.7 %
     Extraction speed 12.2 X
     Track quality 99.9 %
     Test CRC CABDF48E
     Copy CRC CABDF48E
     Accurately ripped (confidence 2)  [567334BC]  (AR v1)
     Copy OK
Track 13
     Filename C:\H\Luxuslaerm flac\13 Thelma & Louise.wav
     Peak level 98.3 %
     Extraction speed 15.7 X
     Track quality 100.0 %
     Test CRC 9844A308
     Copy CRC 9844A308
     Accurately ripped (confidence 2)  [58F6C8C9]  (AR v1)
     Copy OK
Track 14
     Filename C:\H\Luxuslaerm flac\14 Nach einer wahren Geschichte.wav
     Peak level 98.8 %
     Extraction speed 14.1 X
     Track quality 100.0 %
     Test CRC FB0005BB
     Copy CRC FB0005BB
     Accurately ripped (confidence 2)  [DB47BCCB]  (AR v1)
     Copy OK
All tracks accurately ripped
No errors occurred
End of status report
==== Log checksum FEE3849C3CCA0870088F2441AFECC75784EF10B60037C666F9E34EA78F55C5D2 ====
Код:
REM GENRE Pop-rock
REM DATE 2014
REM DISCID C60C820E
REM COMMENT "ExactAudioCopy v1.0b3"
CATALOG 0602537704774
PERFORMER "Luxuslaerm"
TITLE "Alles was du willst"
FILE "01 Gib mir einen Grund zu bleiben.wav" WAVE
  TRACK 01 AUDIO
    TITLE "Gib mir einen Grund zu bleiben"
    PERFORMER "Luxuslaerm"
    ISRC DEUM71304930
    INDEX 01 00:00:00
FILE "02 Ein neuer Morgen.wav" WAVE
  TRACK 02 AUDIO
    TITLE "Ein neuer Morgen"
    PERFORMER "Luxuslaerm"
    ISRC DEUM71304933
    INDEX 01 00:00:00
FILE "03 Verschenkt.wav" WAVE
  TRACK 03 AUDIO
    TITLE "Verschenkt"
    PERFORMER "Luxuslaerm"
    ISRC DEUM71304934
    INDEX 01 00:00:00
FILE "04 ..., dass du bleibst.wav" WAVE
  TRACK 04 AUDIO
    TITLE "..., dass du bleibst"
    PERFORMER "Luxuslaerm"
    ISRC DEUM71304935
    INDEX 01 00:00:00
FILE "05 Einmal im Leben.wav" WAVE
  TRACK 05 AUDIO
    TITLE "Einmal im Leben"
    PERFORMER "Luxuslaerm"
    ISRC DEUM71304946
    INDEX 01 00:00:00
FILE "06 Regen, der nach oben faellt.wav" WAVE
  TRACK 06 AUDIO
    TITLE "Regen, der nach oben faellt"
    PERFORMER "Luxuslaerm"
    ISRC DEUM71304936
    INDEX 01 00:00:00
FILE "07 Yeah, Yeah, Yeah (So koennte es immer sein).wav" WAVE
  TRACK 07 AUDIO
    TITLE "Yeah, Yeah, Yeah (So koennte es immer sein)"
    PERFORMER "Luxuslaerm"
    ISRC DEUM71304937
    INDEX 01 00:00:00
FILE "08 Dann haeltst du die Zeit an.wav" WAVE
  TRACK 08 AUDIO
    TITLE "Dann haeltst du die Zeit an"
    PERFORMER "Luxuslaerm"
    ISRC DEUM71304938
    INDEX 01 00:00:00
FILE "09 Durchdrehen.wav" WAVE
  TRACK 09 AUDIO
    TITLE "Durchdrehen"
    PERFORMER "Luxuslaerm"
    ISRC DEUM71304939
    INDEX 01 00:00:00
FILE "10 Das letzte Mal.wav" WAVE
  TRACK 10 AUDIO
    TITLE "Das letzte Mal"
    PERFORMER "Luxuslaerm"
    ISRC DEUM71304940
    INDEX 01 00:00:00
FILE "11 Alles was du willst.wav" WAVE
  TRACK 11 AUDIO
    TITLE "Alles was du willst"
    PERFORMER "Luxuslaerm"
    ISRC DEUM71304941
    INDEX 01 00:00:00
FILE "12 Weiße Fahne.wav" WAVE
  TRACK 12 AUDIO
    TITLE "Weiße Fahne"
    PERFORMER "Luxuslaerm"
    ISRC DEUM71304942
    INDEX 01 00:00:00
FILE "13 Thelma & Louise.wav" WAVE
  TRACK 13 AUDIO
    TITLE "Thelma & Louise"
    PERFORMER "Luxuslaerm"
    ISRC DEUM71304943
    INDEX 01 00:00:00
FILE "14 Nach einer wahren Geschichte.wav" WAVE
  TRACK 14 AUDIO
    TITLE "Nach einer wahren Geschichte"
    PERFORMER "Luxuslaerm"
    ISRC DEUM71304944
    INDEX 01 00:00:00
Код:
[CUETools log; Date: 17.05.2014 19:26:55; Version: 2.1.5]
[CTDB TOCID: 8du5FmvPgDX5RIoU1LIeP.kJOa8-] found.
Track | CTDB Status
  1   | (14/14) Accurately ripped
  2   | (14/14) Accurately ripped
  3   | (14/14) Accurately ripped
  4   | (14/14) Accurately ripped
  5   | (14/14) Accurately ripped
  6   | (14/14) Accurately ripped
  7   | (14/14) Accurately ripped
  8   | (14/14) Accurately ripped
  9   | (14/14) Accurately ripped
 10   | (14/14) Accurately ripped
 11   | (14/14) Accurately ripped
 12   | (14/14) Accurately ripped
 13   | (14/14) Accurately ripped
 14   | (14/14) Accurately ripped
[AccurateRip ID: 001a99eb-011c85d9-c60c820e] found.
Track   [  CRC   |   V2   ] Status
 01     [50188175|6017521b] (2+0/2) Accurately ripped
 02     [8968e0b8|0913d1af] (2+0/2) Accurately ripped
 03     [22a55518|0252c3a3] (2+0/2) Accurately ripped
 04     [9cc7d530|9d940933] (2+0/2) Accurately ripped
 05     [a1ac2e38|c4f45fa0] (2+0/2) Accurately ripped
 06     [38039ae0|12e6cfea] (2+0/2) Accurately ripped
 07     [9833adb3|312e4444] (2+0/2) Accurately ripped
 08     [702bffbc|ddbb319d] (2+0/2) Accurately ripped
 09     [62db2eeb|9d46d772] (2+0/2) Accurately ripped
 10     [09caaf85|03f06c81] (2+0/2) Accurately ripped
 11     [3fd65fdc|444ebff8] (2+0/2) Accurately ripped
 12     [567334bc|3c51c842] (2+0/2) Accurately ripped
 13     [58f6c8c9|eaa8369f] (2+0/2) Accurately ripped
 14     [db47bccb|f0725201] (2+0/2) Accurately ripped
Track Peak [ CRC32  ] [W/O NULL] [  LOG   ]
 --   98,8 [4F920898] [203CA031]
 01   98,7 [12E917D0] [419956F7]   CRC32
 02   98,7 [58E9280A] [73E35851]   CRC32
 03   98,7 [0A0AA807] [828E93A7]   CRC32
 04   98,7 [241A105F] [EF511BBF]   CRC32
 05   98,7 [165233CD] [854D28E6]   CRC32
 06   98,7 [0B45E76B] [DB5DF946]   CRC32
 07   98,7 [93049DE2] [77BE4645]   CRC32
 08   98,7 [62187F52] [D2979D18]   CRC32
 09   98,7 [584A5D31] [8EFDD125]   CRC32
 10   98,7 [2D934283] [7A0D2CBB]   CRC32
 11   98,7 [BE0BF22C] [BF1F4734]   CRC32
 12   98,7 [CABDF48E] [462ED644]   CRC32
 13   98,3 [9844A308] [6857981B]   CRC32
 14   98,8 [FB0005BB] [C006EB87]   CRC32
#777Треклист:
Luxuslärm - "Carousel" (2011)
Tracks: 14
Total time: 49:45
Year: 2011
Disc-ID: data / c70bae0e
1. Intro 2:28
2. Liebt sie dich wie ich? 3:09
3. Atemlos 3:45
4. Mehr Gewicht 3:49
5. An dich 3:55
6. Ich beweg' mich hier nicht weg 3:36
7. Carousel 3:46
8. Irgendwo da draußen 3:44
9. Der beste Tag meines Lebens 3:18
10. Über uns der Himmel 3:45
11. Du bist schön 3:36
12. Weil man es Liebe nennt 4:29
13. Lagerfeuer-Song 3:29
14. Aus dem Sinn 2:56
Код:
Exact Audio Copy V1.0 beta 3 from 29. August 2011
EAC extraction logfile from 22. May 2014, 19:36
Luxuslaerm / Carousel
Used drive  : PLEXTOR CD-R   PX-W4012A   Adapter: 2  ID: 0
Read mode               : Secure
Utilize accurate stream : Yes
Defeat audio cache      : Yes
Make use of C2 pointers : No
Read offset correction                      : 98
Overread into Lead-In and Lead-Out          : No
Fill up missing offset samples with silence : Yes
Delete leading and trailing silent blocks   : No
Null samples used in CRC calculations       : Yes
Used interface                              : Native Win32 interface for Win NT & 2000
Gap handling                                : Appended to previous track
Used output format              : User Defined Encoder
Selected bitrate                : 1024 kBit/s
Quality                         : High
Add ID3 tag                     : No
Command line compressor         : C:\Program Files (x86)\Exact Audio Copy\Flac\flac.exe
Additional command line options : -V -8 -T "Genre=%genre%" -T "Artist=%artist%" -T "Title=%title%" -T "Album=%albumtitle%" -T "Date=%year%" -T "Tracknumber=%tracknr%" -T "Comment=%comment%" %source%
TOC of the extracted CD
     Track |   Start  |  Length  | Start sector | End sector
    ---------------------------------------------------------
        1  |  0:00.00 |  2:28.05 |         0    |    11104
        2  |  2:28.05 |  3:09.37 |     11105    |    25316
        3  |  5:37.42 |  3:45.64 |     25317    |    42255
        4  |  9:23.31 |  3:49.18 |     42256    |    59448
        5  | 13:12.49 |  3:55.12 |     59449    |    77085
        6  | 17:07.61 |  3:36.46 |     77086    |    93331
        7  | 20:44.32 |  3:46.36 |     93332    |   110317
        8  | 24:30.68 |  3:44.72 |    110318    |   127189
        9  | 28:15.65 |  3:18.43 |    127190    |   142082
       10  | 31:34.33 |  3:45.26 |    142083    |   158983
       11  | 35:19.59 |  3:36.37 |    158984    |   175220
       12  | 38:56.21 |  4:29.22 |    175221    |   195417
       13  | 43:25.43 |  3:29.01 |    195418    |   211093
       14  | 46:54.44 |  2:55.31 |    211094    |   224249
Track  1
     Filename C:\H\Luxuslaerm flac\01 Intro.wav
     Pre-gap length  0:00:02.00
     Peak level 98.8 %
     Extraction speed 6.7 X
     Track quality 99.9 %
     Test CRC 9C622FE6
     Copy CRC 9C622FE6
     Accurately ripped (confidence 19)  [D1569C30]  (AR v2)
     Copy OK
Track  2
     Filename C:\H\Luxuslaerm flac\02 Liebt sie dich wie ich.wav
     Pre-gap length  0:00:01.68
     Peak level 100.0 %
     Extraction speed 8.8 X
     Track quality 100.0 %
     Test CRC 46EA6209
     Copy CRC 46EA6209
     Accurately ripped (confidence 19)  [BE8B6B22]  (AR v2)
     Copy OK
Track  3
     Filename C:\H\Luxuslaerm flac\03 Atemlos.wav
     Pre-gap length  0:00:01.69
     Peak level 100.0 %
     Extraction speed 9.6 X
     Track quality 100.0 %
     Test CRC FB9F3B4C
     Copy CRC FB9F3B4C
     Accurately ripped (confidence 19)  [E47DDB58]  (AR v2)
     Copy OK
Track  4
     Filename C:\H\Luxuslaerm flac\04 Mehr Gewicht.wav
     Pre-gap length  0:00:03.29
     Peak level 98.8 %
     Extraction speed 10.4 X
     Track quality 100.0 %
     Test CRC F8967F14
     Copy CRC F8967F14
     Accurately ripped (confidence 19)  [B51018C1]  (AR v2)
     Copy OK
Track  5
     Filename C:\H\Luxuslaerm flac\05 An dich.wav
     Pre-gap length  0:00:01.69
     Peak level 98.8 %
     Extraction speed 11.1 X
     Track quality 100.0 %
     Test CRC 2EDA22CB
     Copy CRC 2EDA22CB
     Accurately ripped (confidence 19)  [6508F5E4]  (AR v2)
     Copy OK
Track  6
     Filename C:\H\Luxuslaerm flac\06 Ich beweg' mich hier nicht weg.wav
     Pre-gap length  0:00:02.36
     Peak level 98.8 %
     Extraction speed 11.6 X
     Track quality 100.0 %
     Test CRC 5AC4DAAD
     Copy CRC 5AC4DAAD
     Accurately ripped (confidence 19)  [34FCBD27]  (AR v2)
     Copy OK
Track  7
     Filename C:\H\Luxuslaerm flac\07 Carousel.wav
     Pre-gap length  0:00:00.28
     Peak level 98.8 %
     Extraction speed 12.2 X
     Track quality 100.0 %
     Test CRC 72C330D5
     Copy CRC 72C330D5
     Accurately ripped (confidence 19)  [2D95B0C9]  (AR v2)
     Copy OK
Track  8
     Filename C:\H\Luxuslaerm flac\08 Irgendwo da draussen.wav
     Pre-gap length  0:00:02.31
     Peak level 98.8 %
     Extraction speed 12.8 X
     Track quality 100.0 %
     Test CRC 5884414A
     Copy CRC 5884414A
     Accurately ripped (confidence 19)  [CE30F1CE]  (AR v2)
     Copy OK
Track  9
     Filename C:\H\Luxuslaerm flac\09 Der beste Tag meines Lebens.wav
     Pre-gap length  0:00:01.69
     Peak level 98.8 %
     Extraction speed 13.0 X
     Track quality 100.0 %
     Test CRC EEB16A76
     Copy CRC EEB16A76
     Accurately ripped (confidence 19)  [C8643112]  (AR v2)
     Copy OK
Track 10
     Filename C:\H\Luxuslaerm flac\10 Ueber uns der Himmel.wav
     Pre-gap length  0:00:01.74
     Peak level 98.8 %
     Extraction speed 13.7 X
     Track quality 100.0 %
     Test CRC 3B22F105
     Copy CRC 3B22F105
     Accurately ripped (confidence 19)  [5C62EE6E]  (AR v2)
     Copy OK
Track 11
     Filename C:\H\Luxuslaerm flac\11 Du bist schoen.wav
     Pre-gap length  0:00:01.74
     Peak level 98.8 %
     Extraction speed 14.0 X
     Track quality 100.0 %
     Test CRC 7810DBBE
     Copy CRC 7810DBBE
     Accurately ripped (confidence 19)  [B7EF7C0D]  (AR v2)
     Copy OK
Track 12
     Filename C:\H\Luxuslaerm flac\12 Weil man es Liebe nennt.wav
     Pre-gap length  0:00:01.69
     Peak level 98.8 %
     Extraction speed 14.9 X
     Track quality 100.0 %
     Test CRC 2044F904
     Copy CRC 2044F904
     Accurately ripped (confidence 19)  [6FCDE403]  (AR v2)
     Copy OK
Track 13
     Filename C:\H\Luxuslaerm flac\13 Lagerfeuer-Song.wav
     Pre-gap length  0:00:00.34
     Peak level 98.8 %
     Extraction speed 15.2 X
     Track quality 100.0 %
     Test CRC 46AE40B4
     Copy CRC 46AE40B4
     Accurately ripped (confidence 19)  [384AABF4]  (AR v2)
     Copy OK
Track 14
     Filename C:\H\Luxuslaerm flac\14 Aus dem Sinn.wav
     Pre-gap length  0:00:02.41
     Peak level 98.8 %
     Extraction speed 12.8 X
     Track quality 100.0 %
     Test CRC A6CF20B8
     Copy CRC A6CF20B8
     Accurately ripped (confidence 19)  [1415BB76]  (AR v2)
     Copy OK
All tracks accurately ripped
No errors occurred
End of status report
==== Log checksum 66FC4EC3FB27066AEC7BE2E4A42820066C3D5AB7EEA6D42387187C136A983226 ====
Код:
REM GENRE Pop-rock
REM DATE 2011
REM DISCID C70BAE0E
REM COMMENT "ExactAudioCopy v1.0b3"
CATALOG 0807297184327
PERFORMER "Luxuslaerm"
TITLE "Carousel"
FILE "01 Intro.wav" WAVE
  TRACK 01 AUDIO
    TITLE "Intro"
    PERFORMER "Luxuslaerm"
    ISRC DEDL81101080
    FLAGS DCP
    INDEX 01 00:00:00
  TRACK 02 AUDIO
    TITLE "Liebt sie dich wie ich?"
    PERFORMER "Luxuslaerm"
    ISRC DEDL81101081
    FLAGS DCP
    INDEX 00 02:26:12
FILE "02 Liebt sie dich wie ich.wav" WAVE
    INDEX 01 00:00:00
  TRACK 03 AUDIO
    TITLE "Atemlos"
    PERFORMER "Luxuslaerm"
    ISRC DEDL81101082
    FLAGS DCP
    INDEX 00 03:07:43
FILE "03 Atemlos.wav" WAVE
    INDEX 01 00:00:00
  TRACK 04 AUDIO
    TITLE "Mehr Gewicht"
    PERFORMER "Luxuslaerm"
    ISRC DEDL81101083
    FLAGS DCP
    INDEX 00 03:42:35
FILE "04 Mehr Gewicht.wav" WAVE
    INDEX 01 00:00:00
  TRACK 05 AUDIO
    TITLE "An dich"
    PERFORMER "Luxuslaerm"
    ISRC DEDL81101084
    FLAGS DCP
    INDEX 00 03:47:24
FILE "05 An dich.wav" WAVE
    INDEX 01 00:00:00
  TRACK 06 AUDIO
    TITLE "Ich beweg' mich hier nicht weg"
    PERFORMER "Luxuslaerm"
    ISRC DEDL81101085
    FLAGS DCP
    INDEX 00 03:52:51
FILE "06 Ich beweg' mich hier nicht weg.wav" WAVE
    INDEX 01 00:00:00
  TRACK 07 AUDIO
    TITLE "Carousel"
    PERFORMER "Luxuslaerm"
    ISRC DEDL81101086
    FLAGS DCP
    INDEX 00 03:36:18
FILE "07 Carousel.wav" WAVE
    INDEX 01 00:00:00
  TRACK 08 AUDIO
    TITLE "Irgendwo da draussen"
    PERFORMER "Luxuslaerm"
    ISRC DEDL81101087
    FLAGS DCP
    INDEX 00 03:44:05
FILE "08 Irgendwo da draussen.wav" WAVE
    INDEX 01 00:00:00
  TRACK 09 AUDIO
    TITLE "Der beste Tag meines Lebens"
    PERFORMER "Luxuslaerm"
    ISRC DEDL81101088
    FLAGS DCP
    INDEX 00 03:43:03
FILE "09 Der beste Tag meines Lebens.wav" WAVE
    INDEX 01 00:00:00
  TRACK 10 AUDIO
    TITLE "Ueber uns der Himmel"
    PERFORMER "Luxuslaerm"
    ISRC DEDL81101089
    FLAGS DCP
    INDEX 00 03:16:44
FILE "10 Ueber uns der Himmel.wav" WAVE
    INDEX 01 00:00:00
  TRACK 11 AUDIO
    TITLE "Du bist schoen"
    PERFORMER "Luxuslaerm"
    ISRC DEDL81101090
    FLAGS DCP
    INDEX 00 03:43:27
FILE "11 Du bist schoen.wav" WAVE
    INDEX 01 00:00:00
  TRACK 12 AUDIO
    TITLE "Weil man es Liebe nennt"
    PERFORMER "Luxuslaerm"
    ISRC DEDL81101091
    FLAGS DCP
    INDEX 00 03:34:43
FILE "12 Weil man es Liebe nennt.wav" WAVE
    INDEX 01 00:00:00
  TRACK 13 AUDIO
    TITLE "Lagerfeuer-Song"
    PERFORMER "Luxuslaerm"
    ISRC DEDL81101092
    FLAGS DCP
    INDEX 00 04:28:63
FILE "13 Lagerfeuer-Song.wav" WAVE
    INDEX 01 00:00:00
  TRACK 14 AUDIO
    TITLE "Aus dem Sinn"
    PERFORMER "Luxuslaerm"
    ISRC DEDL81101093
    FLAGS DCP
    INDEX 00 03:26:35
FILE "14 Aus dem Sinn.wav" WAVE
    INDEX 01 00:00:00
Код:
[CUETools log; Date: 22.05.2014 19:37:05; Version: 2.1.5]
[CTDB TOCID: gf9YQr8zHHxPp1Z3ZimZfVRmR5I-] found.
Track | CTDB Status
  1   | (30/30) Accurately ripped
  2   | (30/30) Accurately ripped
  3   | (30/30) Accurately ripped
  4   | (30/30) Accurately ripped
  5   | (30/30) Accurately ripped
  6   | (30/30) Accurately ripped
  7   | (30/30) Accurately ripped
  8   | (30/30) Accurately ripped
  9   | (30/30) Accurately ripped
 10   | (30/30) Accurately ripped
 11   | (29/30) Accurately ripped
 12   | (30/30) Accurately ripped
 13   | (30/30) Accurately ripped
 14   | (30/30) Accurately ripped
[AccurateRip ID: 0019396f-011034e3-c70bae0e] found.
Track   [  CRC   |   V2   ] Status
 01     [347dac83|d1569c30] (09+19/28) Accurately ripped
 02     [0f32f581|be8b6b22] (09+19/28) Accurately ripped
 03     [f70269fb|e47ddb58] (09+19/28) Accurately ripped
 04     [f91de9f3|b51018c1] (09+19/28) Accurately ripped
 05     [0208113a|6508f5e4] (09+19/28) Accurately ripped
 06     [412bea54|34fcbd27] (09+19/28) Accurately ripped
 07     [8d89db2a|2d95b0c9] (09+19/28) Accurately ripped
 08     [a24f09f3|ce30f1ce] (09+19/28) Accurately ripped
 09     [a0398e44|c8643112] (09+19/28) Accurately ripped
 10     [0c1b0b40|5c62ee6e] (09+19/28) Accurately ripped
 11     [09c21480|b7ef7c0d] (09+19/28) Accurately ripped
 12     [6ce96591|6fcde403] (09+19/28) Accurately ripped
 13     [979edd12|384aabf4] (09+19/28) Accurately ripped
 14     [7ec4c56f|1415bb76] (09+19/28) Accurately ripped
Track Peak [ CRC32  ] [W/O NULL] [  LOG   ]
 --  100,0 [9AF93CA0] [D978B343]
 01   98,8 [9C622FE6] [22F03BCF]   CRC32
 02  100,0 [46EA6209] [2EED0CA7]   CRC32
 03  100,0 [FB9F3B4C] [E871A6CA]   CRC32
 04   98,8 [F8967F14] [D70AE077]   CRC32
 05   98,8 [2EDA22CB] [A5799C81]   CRC32
 06   98,8 [5AC4DAAD] [7C6394F0]   CRC32
 07   98,8 [72C330D5] [A770E5C3]   CRC32
 08   98,8 [5884414A] [D339B826]   CRC32
 09   98,8 [EEB16A76] [67BC6BD6]   CRC32
 10   98,8 [3B22F105] [14A1A6A1]   CRC32
 11   98,8 [7810DBBE] [18C2F6D2]   CRC32
 12   98,8 [2044F904] [2D68FDC9]   CRC32
 13   98,8 [46AE40B4] [E9696843]   CRC32
 14   98,8 [A6CF20B8] [54F30492]   CRC32
#777Треклист:
Luxuslärm - "So laut ich kann" (2010)
Tracks: 15
Total time: 71:52
Year: 2010
Disc-ID: rock / e010de0f
1. Sag' es wie es ist 3:03
2. Sie sieht es nicht 3:22
3. Nichts ist zu spät 3:14
4. Feuer 3:43
5. Jemand anders sein 3:40
6. Du weisst nicht wie das ist 3:35
7. Komm' ins Licht 3:45
8. Vergessen zu vergessen 3:48
9. Regen 4:26
10. Leb' deine Träume 3:47
11. Schrei so laut ich kann 4:01
12. Etwas bleibt 3:39
13. Wirf den 1. Stein 3:46
14. Letzter Tag 6:17
15. Data: Video - Hinter der Kulissen 17:46
Video: MPEG2 Video 720x576 (4:3) 25fps [Video]
Audio: MPEG Audio 48000Hz stereo 224kbps [Audio]
Код:
Exact Audio Copy V1.0 beta 3 from 29. August 2011
EAC extraction logfile from 17. May 2014, 19:53
Luxuslaerm / So laut ich kann
Used drive  : PLEXTOR CD-R   PX-W4012A   Adapter: 2  ID: 0
Read mode               : Secure
Utilize accurate stream : Yes
Defeat audio cache      : Yes
Make use of C2 pointers : No
Read offset correction                      : 98
Overread into Lead-In and Lead-Out          : No
Fill up missing offset samples with silence : Yes
Delete leading and trailing silent blocks   : No
Null samples used in CRC calculations       : Yes
Used interface                              : Native Win32 interface for Win NT & 2000
Gap handling                                : Appended to previous track
Used output format              : User Defined Encoder
Selected bitrate                : 1024 kBit/s
Quality                         : High
Add ID3 tag                     : No
Command line compressor         : C:\Program Files (x86)\Exact Audio Copy\Flac\flac.exe
Additional command line options : -V -8 -T "Genre=%genre%" -T "Artist=%artist%" -T "Title=%title%" -T "Album=%albumtitle%" -T "Date=%year%" -T "Tracknumber=%tracknr%" -T "Comment=%comment%" %source%
TOC of the extracted CD
     Track |   Start  |  Length  | Start sector | End sector
    ---------------------------------------------------------
        1  |  0:00.00 |  3:03.63 |         0    |    13787
        2  |  3:03.63 |  3:22.24 |     13788    |    28961
        3  |  6:26.12 |  3:14.54 |     28962    |    43565
        4  |  9:40.66 |  3:43.17 |     43566    |    60307
        5  | 13:24.08 |  3:40.47 |     60308    |    76854
        6  | 17:04.55 |  3:35.26 |     76855    |    93005
        7  | 20:40.06 |  3:45.02 |     93006    |   109882
        8  | 24:25.08 |  3:48.31 |    109883    |   127013
        9  | 28:13.39 |  4:26.15 |    127014    |   146978
       10  | 32:39.54 |  3:47.00 |    146979    |   164003
       11  | 36:26.54 |  4:01.41 |    164004    |   182119
       12  | 40:28.20 |  3:39.43 |    182120    |   198587
       13  | 44:07.63 |  3:46.52 |    198588    |   215589
       14  | 47:54.40 |  3:45.50 |    215590    |   232514
       15  | 54:12.15 | 17:46.58 |    243915    |   323922
Track  1
     Filename C:\H\Luxuslaerm flac\01 Sag' es wie es ist.wav
     Pre-gap length  0:00:02.00
     Peak level 100.0 %
     Extraction speed 6.8 X
     Track quality 100.0 %
     Test CRC 9967FE81
     Copy CRC 9967FE81
     Cannot be verified as accurate (confidence 26)  [A76F85E6], AccurateRip returned [1ED63522]  (AR v2)
     Copy OK
Track  2
     Filename C:\H\Luxuslaerm flac\02 Sie sieht es nicht.wav
     Peak level 98.8 %
     Extraction speed 7.5 X
     Track quality 100.0 %
     Test CRC 41349201
     Copy CRC 41349201
     Cannot be verified as accurate (confidence 28)  [D35BCDD5], AccurateRip returned [FAD8E153]  (AR v2)
     Copy OK
Track  3
     Filename C:\H\Luxuslaerm flac\03 Nichts ist zu spaet.wav
     Pre-gap length  0:00:00.50
     Peak level 98.8 %
     Extraction speed 8.0 X
     Track quality 100.0 %
     Test CRC 5D6E5809
     Copy CRC 5D6E5809
     Cannot be verified as accurate (confidence 28)  [364C962E], AccurateRip returned [3994BD9F]  (AR v2)
     Copy OK
Track  4
     Filename C:\H\Luxuslaerm flac\04 Feuer.wav
     Pre-gap length  0:00:01.11
     Peak level 98.8 %
     Extraction speed 8.5 X
     Track quality 100.0 %
     Test CRC 5F51A89A
     Copy CRC 5F51A89A
     Cannot be verified as accurate (confidence 28)  [D9494FB6], AccurateRip returned [3FFDAF2C]  (AR v2)
     Copy OK
Track  5
     Filename C:\H\Luxuslaerm flac\05 Jemand anders sein.wav
     Pre-gap length  0:00:01.16
     Peak level 98.8 %
     Extraction speed 9.0 X
     Track quality 100.0 %
     Test CRC CAA3C4D9
     Copy CRC CAA3C4D9
     Cannot be verified as accurate (confidence 28)  [24DD3202], AccurateRip returned [5F763596]  (AR v2)
     Copy OK
Track  6
     Filename C:\H\Luxuslaerm flac\06 Du weisst nicht wie das ist.wav
     Pre-gap length  0:00:00.56
     Peak level 98.8 %
     Extraction speed 9.5 X
     Track quality 100.0 %
     Test CRC A8FB62F4
     Copy CRC A8FB62F4
     Cannot be verified as accurate (confidence 27)  [3D6A769B], AccurateRip returned [6ADFF2BA]  (AR v2)
     Copy OK
Track  7
     Filename C:\H\Luxuslaerm flac\07 Komm' ins Licht.wav
     Pre-gap length  0:00:01.65
     Peak level 98.8 %
     Extraction speed 10.0 X
     Track quality 100.0 %
     Test CRC C5B84C45
     Copy CRC C5B84C45
     Cannot be verified as accurate (confidence 28)  [2485B3C2], AccurateRip returned [ABCC6B4E]  (AR v2)
     Copy OK
Track  8
     Filename C:\H\Luxuslaerm flac\08 Vergessen zu vergessen.wav
     Pre-gap length  0:00:01.65
     Peak level 98.8 %
     Extraction speed 9.2 X
     Track quality 99.9 %
     Test CRC 5013D63F
     Copy CRC 5013D63F
     Cannot be verified as accurate (confidence 27)  [AF6CE9BA], AccurateRip returned [86B36A3E]  (AR v2)
     Copy OK
Track  9
     Filename C:\H\Luxuslaerm flac\09 Regen.wav
     Pre-gap length  0:00:01.65
     Peak level 98.8 %
     Extraction speed 11.0 X
     Track quality 100.0 %
     Test CRC DF627956
     Copy CRC DF627956
     Cannot be verified as accurate (confidence 27)  [6AF08B4B], AccurateRip returned [530B1618]  (AR v2)
     Copy OK
Track 10
     Filename C:\H\Luxuslaerm flac\10 Leb' deine Traeume.wav
     Pre-gap length  0:00:00.44
     Peak level 98.8 %
     Extraction speed 11.3 X
     Track quality 100.0 %
     Test CRC 1895BE2F
     Copy CRC 1895BE2F
     Cannot be verified as accurate (confidence 27)  [B1B5FB04], AccurateRip returned [88A296AC]  (AR v2)
     Copy OK
Track 11
     Filename C:\H\Luxuslaerm flac\11 Schrei so laut ich kann.wav
     Pre-gap length  0:00:01.65
     Peak level 98.8 %
     Extraction speed 11.8 X
     Track quality 100.0 %
     Test CRC DB933B69
     Copy CRC DB933B69
     Cannot be verified as accurate (confidence 27)  [4169F7FB], AccurateRip returned [270BC3F6]  (AR v2)
     Copy OK
Track 12
     Filename C:\H\Luxuslaerm flac\12 Etwas bleibt.wav
     Pre-gap length  0:00:00.44
     Peak level 98.8 %
     Extraction speed 12.0 X
     Track quality 100.0 %
     Test CRC E9E22290
     Copy CRC E9E22290
     Cannot be verified as accurate (confidence 28)  [0982C252], AccurateRip returned [37AE9991]  (AR v2)
     Copy OK
Track 13
     Filename C:\H\Luxuslaerm flac\13 Wirf den 1. Stein.wav
     Pre-gap length  0:00:01.65
     Peak level 98.8 %
     Extraction speed 12.4 X
     Track quality 100.0 %
     Test CRC 8BEA2724
     Copy CRC 8BEA2724
     Cannot be verified as accurate (confidence 28)  [2369D469], AccurateRip returned [40632095]  (AR v2)
     Copy OK
Track 14
     Filename C:\H\Luxuslaerm flac\14 Letzter Tag.wav
     Pre-gap length  0:00:00.73
     Peak level 98.8 %
     Extraction speed 10.9 X
     Track quality 100.0 %
     Test CRC 75B2E56A
     Copy CRC 75B2E56A
     Cannot be verified as accurate (confidence 28)  [F194E1E5], AccurateRip returned [F39DC309]  (AR v2)
     Copy OK
No tracks could be verified as accurate
You may have a different pressing from the one(s) in the database
No errors occurred
End of status report
==== Log checksum 6BC5D8869FF06AE37EE43FD1001FA2581F23237AD7B3E01EB7292DE7B796D799 ====
Код:
REM GENRE Pop-Rock
REM DATE 2010
REM DISCID E010DE0F
REM COMMENT "ExactAudioCopy v1.0b3"
PERFORMER "Luxuslaerm"
TITLE "So laut ich kann"
FILE "01 Sag' es wie es ist.wav" WAVE
  TRACK 01 AUDIO
    TITLE "Sag' es wie es ist"
    PERFORMER "Luxuslaerm"
    ISRC DEDL80901579
    INDEX 01 00:00:00
FILE "02 Sie sieht es nicht.wav" WAVE
  TRACK 02 AUDIO
    TITLE "Sie sieht es nicht"
    PERFORMER "Luxuslaerm"
    ISRC DEDL80902299
    INDEX 01 00:00:00
  TRACK 03 AUDIO
    TITLE "Nichts ist zu spaet"
    PERFORMER "Luxuslaerm"
    ISRC DEDL80902300
    INDEX 00 03:21:49
FILE "03 Nichts ist zu spaet.wav" WAVE
    INDEX 01 00:00:00
  TRACK 04 AUDIO
    TITLE "Feuer"
    PERFORMER "Luxuslaerm"
    ISRC DEDL80902301
    INDEX 00 03:13:43
FILE "04 Feuer.wav" WAVE
    INDEX 01 00:00:00
  TRACK 05 AUDIO
    TITLE "Jemand anders sein"
    PERFORMER "Luxuslaerm"
    ISRC DEDL80902302
    INDEX 00 03:42:01
FILE "05 Jemand anders sein.wav" WAVE
    INDEX 01 00:00:00
  TRACK 06 AUDIO
    TITLE "Du weisst nicht wie das ist"
    PERFORMER "Luxuslaerm"
    ISRC DEDL80902303
    INDEX 00 03:39:66
FILE "06 Du weisst nicht wie das ist.wav" WAVE
    INDEX 01 00:00:00
  TRACK 07 AUDIO
    TITLE "Komm' ins Licht"
    PERFORMER "Luxuslaerm"
    ISRC DEDL80902304
    INDEX 00 03:33:36
FILE "07 Komm' ins Licht.wav" WAVE
    INDEX 01 00:00:00
  TRACK 08 AUDIO
    TITLE "Vergessen zu vergessen"
    PERFORMER "Luxuslaerm"
    ISRC DEDL80902305
    INDEX 00 03:43:12
FILE "08 Vergessen zu vergessen.wav" WAVE
    INDEX 01 00:00:00
  TRACK 09 AUDIO
    TITLE "Regen"
    PERFORMER "Luxuslaerm"
    ISRC DEDL80902306
    INDEX 00 03:46:41
FILE "09 Regen.wav" WAVE
    INDEX 01 00:00:00
  TRACK 10 AUDIO
    TITLE "Leb' deine Traeume"
    PERFORMER "Luxuslaerm"
    ISRC DEDL80902307
    INDEX 00 04:25:46
FILE "10 Leb' deine Traeume.wav" WAVE
    INDEX 01 00:00:00
  TRACK 11 AUDIO
    TITLE "Schrei so laut ich kann"
    PERFORMER "Luxuslaerm"
    ISRC DEDL80902308
    INDEX 00 03:45:10
FILE "11 Schrei so laut ich kann.wav" WAVE
    INDEX 01 00:00:00
  TRACK 12 AUDIO
    TITLE "Etwas bleibt"
    PERFORMER "Luxuslaerm"
    ISRC DEDL80902309
    INDEX 00 04:00:72
FILE "12 Etwas bleibt.wav" WAVE
    INDEX 01 00:00:00
  TRACK 13 AUDIO
    TITLE "Wirf den 1. Stein"
    PERFORMER "Luxuslaerm"
    ISRC DEDL80902310
    INDEX 00 03:37:53
FILE "13 Wirf den 1. Stein.wav" WAVE
    INDEX 01 00:00:00
  TRACK 14 AUDIO
    TITLE "Letzter Tag"
    PERFORMER "Luxuslaerm"
    ISRC DEDL80902311
    INDEX 00 03:45:54
FILE "14 Letzter Tag.wav" WAVE
    INDEX 01 00:00:00
Код:
[CUETools log; Date: 17.05.2014 19:54:33; Version: 2.1.5]
CD-Extra data track length 17:46:58.
[CTDB TOCID: KiEAEl41kqCBRojFj_5cZo9d0Gg-] found.
Track | CTDB Status
  1   | (25/25) Accurately ripped
  2   | (25/25) Accurately ripped
  3   | (25/25) Accurately ripped
  4   | (25/25) Accurately ripped
  5   | (25/25) Accurately ripped
  6   | (25/25) Accurately ripped
  7   | (25/25) Accurately ripped
  8   | (25/25) Accurately ripped
  9   | (25/25) Accurately ripped
 10   | (23/25) Accurately ripped
 11   | (25/25) Accurately ripped
 12   | (24/25) Accurately ripped
 13   | (24/25) Accurately ripped
 14   | (24/25) Accurately ripped
[AccurateRip ID: 001b3b0a-012bb91c-e010de0f] found.
Track   [  CRC   |   V2   ] Status
 01     [112b7b98|a76f85e6] (00+00/42) No match
 02     [46cf3fc5|d35bcdd5] (00+00/44) No match
 03     [f12db8bb|364c962e] (00+00/44) No match
 04     [47f428b8|d9494fb6] (00+00/44) No match
 05     [5e1ee062|24dd3202] (00+00/44) No match
 06     [6e74a2a6|3d6a769b] (00+00/43) No match
 07     [0c9b717a|2485b3c2] (00+00/44) No match
 08     [13e86436|af6ce9ba] (00+00/43) No match
 09     [408d9da8|6af08b4b] (00+00/43) No match
 10     [f2caf770|b1b5fb04] (00+00/43) No match
 11     [191602ce|4169f7fb] (00+00/43) No match
 12     [7ded6ad1|0982c252] (00+00/44) No match
 13     [1b3f4e31|2369d469] (00+00/44) No match
 14     [209f24a5|f194e1e5] (00+00/44) No match
Offsetted by 84:
 01     [1ed63522] (26/42) Accurately ripped
 02     [fad8e153] (28/44) Accurately ripped
 03     [3994bd9f] (28/44) Accurately ripped
 04     [3ffdaf2c] (28/44) Accurately ripped
 05     [5f763596] (28/44) Accurately ripped
 06     [6adff2ba] (27/43) Accurately ripped
 07     [abcc6b4e] (28/44) Accurately ripped
 08     [86b36a3e] (27/43) Accurately ripped
 09     [530b1618] (27/43) Accurately ripped
 10     [88a296ac] (27/43) Accurately ripped
 11     [270bc3f6] (27/43) Accurately ripped
 12     [37ae9991] (28/44) Accurately ripped
 13     [40632095] (28/44) Accurately ripped
 14     [f39dc309] (28/44) Accurately ripped
Track Peak [ CRC32  ] [W/O NULL] [  LOG   ]
 --  100,0 [8CE25116] [3FEB64E2]
 01  100,0 [9967FE81] [8D84A4BE]   CRC32
 02   98,8 [41349201] [45721277]   CRC32
 03   98,8 [5D6E5809] [3B7E67CA]   CRC32
 04   98,8 [5F51A89A] [A0DDEF53]   CRC32
 05   98,8 [CAA3C4D9] [3BCBA035]   CRC32
 06   98,8 [A8FB62F4] [F35A584F]   CRC32
 07   98,8 [C5B84C45] [7D502711]   CRC32
 08   98,8 [5013D63F] [62AB3214]   CRC32
 09   98,8 [DF627956] [5026E2FF]   CRC32
 10   98,8 [1895BE2F] [BA8A5EE4]   CRC32
 11   98,8 [DB933B69] [E698923F]   CRC32
 12   98,8 [E9E22290] [3B88DFAB]   CRC32
 13   98,8 [8BEA2724] [971FB5DE]   CRC32
 14   98,8 [75B2E56A] [2B415A0F]   CRC32
#777Треклист:
Luxuslärm - "1000 km bis zum Meer" (2008)
Tracks: 13
Total time: 50:26
Year: 2008
Disc-ID: newage / b30bd80d
1. Solange es noch geht 3:48
2. 1000 km bis zum Meer 3:49
3. Soll das etwa alles sein? 3:34
4. Unsterblich 4:06
5. Hier bin ich 4:04
6. Du gehst jetzt besser 3:12
7. Zeichen 3:59
8. Ja Ja 3:28
9. Was ist mit mir? 4:11
10. Alles wird gut 4:34
11. Von jetzt an 4:30
12. Was sag' ich jetzt? 3:03
13. Abschied 4:08
Код:
Exact Audio Copy V1.0 beta 3 from 29. August 2011
EAC extraction logfile from 22. May 2014, 19:10
Luxuslaerm / 1000 km bis zum Meer
Used drive  : PLEXTOR CD-R   PX-W4012A   Adapter: 2  ID: 0
Read mode               : Secure
Utilize accurate stream : Yes
Defeat audio cache      : Yes
Make use of C2 pointers : No
Read offset correction                      : 98
Overread into Lead-In and Lead-Out          : No
Fill up missing offset samples with silence : Yes
Delete leading and trailing silent blocks   : No
Null samples used in CRC calculations       : Yes
Used interface                              : Native Win32 interface for Win NT & 2000
Gap handling                                : Appended to previous track
Used output format              : User Defined Encoder
Selected bitrate                : 1024 kBit/s
Quality                         : High
Add ID3 tag                     : No
Command line compressor         : C:\Program Files (x86)\Exact Audio Copy\Flac\flac.exe
Additional command line options : -V -8 -T "Genre=%genre%" -T "Artist=%artist%" -T "Title=%title%" -T "Album=%albumtitle%" -T "Date=%year%" -T "Tracknumber=%tracknr%" -T "Comment=%comment%" %source%
TOC of the extracted CD
     Track |   Start  |  Length  | Start sector | End sector
    ---------------------------------------------------------
        1  |  0:00.00 |  3:48.05 |         0    |    17104
        2  |  3:48.05 |  3:49.69 |     17105    |    34348
        3  |  7:37.74 |  3:34.39 |     34349    |    50437
        4  | 11:12.38 |  4:06.73 |     50438    |    68960
        5  | 15:19.36 |  4:04.25 |     68961    |    87285
        6  | 19:23.61 |  3:12.66 |     87286    |   101751
        7  | 22:36.52 |  3:59.39 |    101752    |   119715
        8  | 26:36.16 |  3:28.40 |    119716    |   135355
        9  | 30:04.56 |  4:11.18 |    135356    |   154198
       10  | 34:15.74 |  4:34.50 |    154199    |   174798
       11  | 38:50.49 |  4:30.14 |    174799    |   195062
       12  | 43:20.63 |  3:03.14 |    195063    |   208801
       13  | 46:24.02 |  4:08.72 |    208802    |   227473
Track  1
     Filename C:\H\Luxuslaerm flac\01 Solange es noch geht.wav
     Pre-gap length  0:00:02.00
     Peak level 98.8 %
     Extraction speed 7.4 X
     Track quality 99.9 %
     Test CRC D78F0368
     Copy CRC D78F0368
     Accurately ripped (confidence 20)  [2BCFF521]  (AR v2)
     Copy OK
Track  2
     Filename C:\H\Luxuslaerm flac\02 1000 km bis zum Meer.wav
     Pre-gap length  0:00:02.12
     Peak level 98.8 %
     Extraction speed 9.2 X
     Track quality 100.0 %
     Test CRC 9C66F7A7
     Copy CRC 9C66F7A7
     Accurately ripped (confidence 20)  [8DF9D4F9]  (AR v2)
     Copy OK
Track  3
     Filename C:\H\Luxuslaerm flac\03 Soll das etwa alles sein.wav
     Pre-gap length  0:00:01.68
     Peak level 100.0 %
     Extraction speed 10.0 X
     Track quality 100.0 %
     Test CRC 6944C27F
     Copy CRC 6944C27F
     Accurately ripped (confidence 20)  [899CB9F9]  (AR v2)
     Copy OK
Track  4
     Filename C:\H\Luxuslaerm flac\04 Unsterblich.wav
     Pre-gap length  0:00:02.53
     Peak level 98.8 %
     Extraction speed 9.3 X
     Track quality 99.9 %
     Test CRC 5F86CDB7
     Copy CRC 5F86CDB7
     Accurately ripped (confidence 20)  [02430B0B]  (AR v2)
     Copy OK
Track  5
     Filename C:\H\Luxuslaerm flac\05 Hier bin ich.wav
     Pre-gap length  0:00:01.28
     Peak level 98.8 %
     Extraction speed 9.9 X
     Track quality 99.9 %
     Test CRC FD43C4BA
     Copy CRC FD43C4BA
     Accurately ripped (confidence 20)  [C3D8BD75]  (AR v2)
     Copy OK
Track  6
     Filename C:\H\Luxuslaerm flac\06 Du gehst jetzt besser.wav
     Pre-gap length  0:00:01.64
     Peak level 98.8 %
     Extraction speed 9.9 X
     Track quality 99.9 %
     Test CRC 12546CAD
     Copy CRC 12546CAD
     Accurately ripped (confidence 20)  [28924034]  (AR v2)
     Copy OK
Track  7
     Filename C:\H\Luxuslaerm flac\07 Zeichen.wav
     Pre-gap length  0:00:02.51
     Peak level 98.8 %
     Extraction speed 12.4 X
     Track quality 100.0 %
     Test CRC 5589A8A4
     Copy CRC 5589A8A4
     Accurately ripped (confidence 20)  [236BD436]  (AR v2)
     Copy OK
Track  8
     Filename C:\H\Luxuslaerm flac\08 Ja Ja.wav
     Pre-gap length  0:00:00.73
     Peak level 98.8 %
     Extraction speed 12.9 X
     Track quality 100.0 %
     Test CRC 240A8DD7
     Copy CRC 240A8DD7
     Accurately ripped (confidence 20)  [65BC2281]  (AR v2)
     Copy OK
Track  9
     Filename C:\H\Luxuslaerm flac\09 Was ist mit mir.wav
     Pre-gap length  0:00:00.07
     Peak level 98.8 %
     Extraction speed 13.4 X
     Track quality 100.0 %
     Test CRC 9EAB31BA
     Copy CRC 9EAB31BA
     Accurately ripped (confidence 20)  [DEA93A4C]  (AR v2)
     Copy OK
Track 10
     Filename C:\H\Luxuslaerm flac\10 Alles wird gut.wav
     Pre-gap length  0:00:02.74
     Peak level 98.8 %
     Extraction speed 14.2 X
     Track quality 100.0 %
     Test CRC F1FF52D0
     Copy CRC F1FF52D0
     Accurately ripped (confidence 20)  [0D9093FC]  (AR v2)
     Copy OK
Track 11
     Filename C:\H\Luxuslaerm flac\11 Von jetzt an.wav
     Pre-gap length  0:00:00.15
     Peak level 98.8 %
     Extraction speed 14.7 X
     Track quality 100.0 %
     Test CRC 3906B6D7
     Copy CRC 3906B6D7
     Accurately ripped (confidence 20)  [241F953C]  (AR v2)
     Copy OK
Track 12
     Filename C:\H\Luxuslaerm flac\12 Was sag' ich jetzt.wav
     Pre-gap length  0:00:02.13
     Peak level 98.8 %
     Extraction speed 14.7 X
     Track quality 100.0 %
     Test CRC BF29C155
     Copy CRC BF29C155
     Accurately ripped (confidence 20)  [9F660299]  (AR v2)
     Copy OK
Track 13
     Filename C:\H\Luxuslaerm flac\13 Abschied.wav
     Pre-gap length  0:00:02.15
     Peak level 98.8 %
     Extraction speed 13.6 X
     Track quality 100.0 %
     Test CRC D3344626
     Copy CRC D3344626
     Accurately ripped (confidence 20)  [E937C2F5]  (AR v2)
     Copy OK
All tracks accurately ripped
No errors occurred
End of status report
==== Log checksum 44B3FF63645314983D0DB95FA8B5E606D4FF59B8BEDFDFBF97515A5ED51F787B ====
Код:
REM GENRE Pop-rock
REM DATE 2008
REM DISCID B30BD80D
REM COMMENT "ExactAudioCopy v1.0b3"
PERFORMER "Luxuslaerm"
TITLE "1000 km bis zum Meer"
FILE "01 Solange es noch geht.wav" WAVE
  TRACK 01 AUDIO
    TITLE "Solange es noch geht"
    PERFORMER "Luxuslaerm"
    ISRC DEDL80801044
    FLAGS DCP
    INDEX 01 00:00:00
  TRACK 02 AUDIO
    TITLE "1000 km bis zum Meer"
    PERFORMER "Luxuslaerm"
    ISRC DEDL80801022
    FLAGS DCP
    INDEX 00 03:45:68
FILE "02 1000 km bis zum Meer.wav" WAVE
    INDEX 01 00:00:00
  TRACK 03 AUDIO
    TITLE "Soll das etwa alles sein?"
    PERFORMER "Luxuslaerm"
    ISRC DEDL80801045
    FLAGS DCP
    INDEX 00 03:48:01
FILE "03 Soll das etwa alles sein.wav" WAVE
    INDEX 01 00:00:00
  TRACK 04 AUDIO
    TITLE "Unsterblich"
    PERFORMER "Luxuslaerm"
    ISRC DEDL80801046
    FLAGS DCP
    INDEX 00 03:31:61
FILE "04 Unsterblich.wav" WAVE
    INDEX 01 00:00:00
  TRACK 05 AUDIO
    TITLE "Hier bin ich"
    PERFORMER "Luxuslaerm"
    ISRC DEDL80801047
    FLAGS DCP
    INDEX 00 04:05:45
FILE "05 Hier bin ich.wav" WAVE
    INDEX 01 00:00:00
  TRACK 06 AUDIO
    TITLE "Du gehst jetzt besser"
    PERFORMER "Luxuslaerm"
    ISRC DEDL80801048
    FLAGS DCP
    INDEX 00 04:02:36
FILE "06 Du gehst jetzt besser.wav" WAVE
    INDEX 01 00:00:00
  TRACK 07 AUDIO
    TITLE "Zeichen"
    PERFORMER "Luxuslaerm"
    ISRC DEDL80801049
    FLAGS DCP
    INDEX 00 03:10:15
FILE "07 Zeichen.wav" WAVE
    INDEX 01 00:00:00
  TRACK 08 AUDIO
    TITLE "Ja Ja"
    PERFORMER "Luxuslaerm"
    ISRC DEDL80801050
    FLAGS DCP
    INDEX 00 03:58:41
FILE "08 Ja Ja.wav" WAVE
    INDEX 01 00:00:00
  TRACK 09 AUDIO
    TITLE "Was ist mit mir?"
    PERFORMER "Luxuslaerm"
    ISRC DEDL80801051
    FLAGS DCP
    INDEX 00 03:28:33
FILE "09 Was ist mit mir.wav" WAVE
    INDEX 01 00:00:00
  TRACK 10 AUDIO
    TITLE "Alles wird gut"
    PERFORMER "Luxuslaerm"
    ISRC DEDL80801052
    FLAGS DCP
    INDEX 00 04:08:19
FILE "10 Alles wird gut.wav" WAVE
    INDEX 01 00:00:00
  TRACK 11 AUDIO
    TITLE "Von jetzt an"
    PERFORMER "Luxuslaerm"
    ISRC DEDL80801053
    FLAGS DCP
    INDEX 00 04:34:35
FILE "11 Von jetzt an.wav" WAVE
    INDEX 01 00:00:00
  TRACK 12 AUDIO
    TITLE "Was sag' ich jetzt?"
    PERFORMER "Luxuslaerm"
    ISRC DEDL80801054
    FLAGS DCP
    INDEX 00 04:28:01
FILE "12 Was sag' ich jetzt.wav" WAVE
    INDEX 01 00:00:00
  TRACK 13 AUDIO
    TITLE "Abschied"
    PERFORMER "Luxuslaerm"
    ISRC DEDL80801055
    FLAGS DCP
    INDEX 00 03:00:74
FILE "13 Abschied.wav" WAVE
    INDEX 01 00:00:00
Код:
[CUETools log; Date: 22.05.2014 19:11:16; Version: 2.1.5]
[CTDB TOCID: KM12VJQHcRVuF07dy4Vxuj9v02I-] found.
Track | CTDB Status
  1   | (19/19) Accurately ripped
  2   | (19/19) Accurately ripped
  3   | (19/19) Accurately ripped
  4   | (19/19) Accurately ripped
  5   | (19/19) Accurately ripped
  6   | (19/19) Accurately ripped
  7   | (19/19) Accurately ripped
  8   | (19/19) Accurately ripped
  9   | (18/19) Accurately ripped
 10   | (19/19) Accurately ripped
 11   | (18/19) Accurately ripped
 12   | (19/19) Accurately ripped
 13   | (19/19) Accurately ripped
[AccurateRip ID: 00180984-00f11804-b30bd80d] found.
Track   [  CRC   |   V2   ] Status
 01     [9fc01d7f|2bcff521] (31+20/53) Accurately ripped
 02     [dfd13771|8df9d4f9] (32+20/54) Accurately ripped
 03     [6c21c098|899cb9f9] (31+20/53) Accurately ripped
 04     [ca7dfb71|02430b0b] (32+20/54) Accurately ripped
 05     [07c5ec77|c3d8bd75] (31+20/53) Accurately ripped
 06     [615107f0|28924034] (31+20/53) Accurately ripped
 07     [da5c2fb0|236bd436] (31+20/53) Accurately ripped
 08     [6c177868|65bc2281] (31+20/53) Accurately ripped
 09     [21b53046|dea93a4c] (31+20/53) Accurately ripped
 10     [16d480da|0d9093fc] (31+20/53) Accurately ripped
 11     [0e581d99|241f953c] (31+20/53) Accurately ripped
 12     [74fa133e|9f660299] (31+20/53) Accurately ripped
 13     [e9292965|e937c2f5] (30+20/52) Accurately ripped
Offsetted by 670:
 01     [bc94a256] (02/53) Accurately ripped
 02     [a8206e91] (02/54) Accurately ripped
 03     [306021c5] (02/53) Accurately ripped
 04     [c20762e3] (02/54) Accurately ripped
 05     [9d0bc1c1] (02/53) Accurately ripped
 06     [1220d769] (02/53) Accurately ripped
 07     [d9e1f323] (02/53) Accurately ripped
 08     [8873b9ff] (02/53) Accurately ripped
 09     [af688732] (02/53) Accurately ripped
 10     [77a4377f] (02/53) Accurately ripped
 11     [da02068b] (02/53) Accurately ripped
 12     [2e0344e0] (02/53) Accurately ripped
 13     [6c26e9d4] (02/52) Accurately ripped
Track Peak [ CRC32  ] [W/O NULL] [  LOG   ]
 --  100,0 [69365FC3] [B40B7215]
 01   98,8 [D78F0368] [EB5AE06A]   CRC32
 02   98,8 [9C66F7A7] [E4B96B46]   CRC32
 03  100,0 [6944C27F] [0ADD6055]   CRC32
 04   98,8 [5F86CDB7] [4D67CBDC]   CRC32
 05   98,8 [FD43C4BA] [4BF8150F]   CRC32
 06   98,8 [12546CAD] [66A5938F]   CRC32
 07   98,8 [5589A8A4] [39479EE7]   CRC32
 08   98,8 [240A8DD7] [C5875DDD]   CRC32
 09   98,8 [9EAB31BA] [3B661C83]   CRC32
 10   98,8 [F1FF52D0] [4DC89036]   CRC32
 11   98,8 [3906B6D7] [C7BD8B7D]   CRC32
 12   98,8 [BF29C155] [ED142735]   CRC32
 13   98,8 [D3344626] [87A7F90A]   CRC32
Правила, инструкции, FAQ!!!
Торрент  Добавлен [26 мар 2019, 19:52] Скачать торрент Магнет ссылка
Скачать торрент
[ Размер 27.52 КБ / Просмотров 6 ]

Статус
Проверен 
 
Размер  1.61 ГБ
Приватный: Нет (DHT включён)
.torrent скачан  0
 


     Отправить личное сообщение
   
Страница 1 из 1
Показать сообщения за:  Поле сортировки  
Начать новую тему Ответить на тему


Сейчас этот форум просматривают: нет зарегистрированных пользователей и гости: 0


Вы не можете начинать темы
Вы не можете отвечать на сообщения
Вы не можете редактировать свои сообщения
Вы не можете удалять свои сообщения
Вы не можете добавлять вложения

Перейти:  
cron