Начать новую тему Ответить на тему
Статистика раздачи
Размер: 244.53 МБ | Добавлен: 26 мар 2019, 20:48 | Скачали: 1
Сидеров: 9  [0 байт/сек]    Личеров: 0  [0 байт/сек]
Пред. тема | След. тема 

Автор
Сообщение

СообщениеДобавлено: 26 мар 2019, 20:48 

Ответить с цитатой 

Louise Hoffsten / Looking for Mr. God
Жанр: Pop-rock
Год издания: 2012
Аудиокодек: FLAC (*.flac)
Тип рипа: tracks+.cue
Битрейт аудио: lossless
Продолжительность: 00:40:03
Источник (релизер): What.cd
Наличие сканов в содержимом раздачи: нет
Треклист:
01. I'll Get By (3:32)
02. Walk With The Rhythm (3:17)
03. Looking For Mr God (3:05)
04. An Empty Valentine's Box (4:14)
05. Don't Steal My Dreams (3:55)
06. Go For Love (3:47)
07. Hey Mr Hyde (3:31)
08. Tough Love (4:04)
09. Empty Air (3:15)
10. Not Today (3:29)
11. I Fall Down (3:54)
Код:
Exact Audio Copy V1.0 beta 3 from 29. August 2011
EAC extraction logfile from 20. June 2012, 15:46
Louise Hoffsten / Looking for Mr. God
Used drive  : IDE-DVD ROM 16x   Adapter: 0  ID: 1
Read mode               : Secure
Utilize accurate stream : Yes
Defeat audio cache      : Yes
Make use of C2 pointers : No
Read offset correction                      : 691
Overread into Lead-In and Lead-Out          : No
Fill up missing offset samples with silence : Yes
Delete leading and trailing silent blocks   : No
Null samples used in CRC calculations       : Yes
Used interface                              : Native Win32 interface for Win NT & 2000
Gap handling                                : Appended to previous track
Used output format              : User Defined Encoder
Selected bitrate                : 128 kBit/s
Quality                         : High
Add ID3 tag                     : No
Command line compressor         : C:\Program Files (x86)\Exact Audio Copy\Flac\flac.exe
Additional command line options : -8 -V -T "ARTIST=%artist%" -T "TITLE=%title%" -T "ALBUM=%albumtitle%" -T "DATE=%year%" -T "TRACKNUMBER=%tracknr%" -T "GENRE=%genre%" -T "PERFORMER=%albuminterpret%" -T "COMPOSER=%composer%" %haslyrics%--tag-from-file=LYRICS="%lyricsfile%"%haslyrics% -T "ALBUMARTIST=%albumartist%" -T "DISCNUMBER=%cdnumber%" -T "TOTALDISCS=%totalcds%" -T "TOTALTRACKS=%numtracks%" -T "COMMENT=%comment%" %source% -o %dest%
TOC of the extracted CD
     Track |   Start  |  Length  | Start sector | End sector
    ---------------------------------------------------------
        1  |  0:00.00 |  3:31.63 |         0    |    15887
        2  |  3:31.63 |  3:17.30 |     15888    |    30692
        3  |  6:49.18 |  3:04.42 |     30693    |    44534
        4  |  9:53.60 |  4:14.08 |     44535    |    63592
        5  | 14:07.68 |  3:55.09 |     63593    |    81226
        6  | 18:03.02 |  3:46.66 |     81227    |    98242
        7  | 21:49.68 |  3:30.44 |     98243    |   114036
        8  | 25:20.37 |  4:03.50 |    114037    |   132311
        9  | 29:24.12 |  3:15.12 |    132312    |   146948
       10  | 32:39.24 |  3:29.35 |    146949    |   162658
       11  | 36:08.59 |  3:54.36 |    162659    |   180244
Track  1
     Filename D:\Music\EAC Rips\Louise Hoffsten - Looking for Mr. God (2012) [FLAC]\01 - I'll Get By.wav
     Pre-gap length  0:00:02.00
     Peak level 100.0 %
     Extraction speed 3.6 X
     Track quality 99.9 %
     Test CRC BC6982ED
     Copy CRC BC6982ED
     Accurately ripped (confidence 2)  [6DE4AAFA]  (AR v1)
     Copy OK
Track  2
     Filename D:\Music\EAC Rips\Louise Hoffsten - Looking for Mr. God (2012) [FLAC]\02 - Walk with the Rhythm.wav
     Peak level 100.0 %
     Extraction speed 4.8 X
     Track quality 100.0 %
     Test CRC 40D89B98
     Copy CRC 40D89B98
     Accurately ripped (confidence 2)  [EF95FBD0]  (AR v1)
     Copy OK
Track  3
     Filename D:\Music\EAC Rips\Louise Hoffsten - Looking for Mr. God (2012) [FLAC]\03 - Looking for Mr. God.wav
     Peak level 100.0 %
     Extraction speed 4.0 X
     Track quality 99.9 %
     Test CRC 0F48FE1D
     Copy CRC 0F48FE1D
     Accurately ripped (confidence 2)  [9D685E30]  (AR v1)
     Copy OK
Track  4
     Filename D:\Music\EAC Rips\Louise Hoffsten - Looking for Mr. God (2012) [FLAC]\04 - An Empty Valentine's Box.wav
     Peak level 100.0 %
     Extraction speed 5.7 X
     Track quality 100.0 %
     Test CRC 3795E3B8
     Copy CRC 3795E3B8
     Accurately ripped (confidence 2)  [B9D1A4FC]  (AR v1)
     Copy OK
Track  5
     Filename D:\Music\EAC Rips\Louise Hoffsten - Looking for Mr. God (2012) [FLAC]\05 - Don't Steal My Dreams.wav
     Peak level 100.0 %
     Extraction speed 6.1 X
     Track quality 100.0 %
     Test CRC 79AC12D8
     Copy CRC 79AC12D8
     Accurately ripped (confidence 2)  [4D98F13D]  (AR v1)
     Copy OK
Track  6
     Filename D:\Music\EAC Rips\Louise Hoffsten - Looking for Mr. God (2012) [FLAC]\06 - Go for Love.wav
     Peak level 100.0 %
     Extraction speed 6.4 X
     Track quality 100.0 %
     Test CRC 2064503A
     Copy CRC 2064503A
     Accurately ripped (confidence 2)  [8F05C654]  (AR v1)
     Copy OK
Track  7
     Filename D:\Music\EAC Rips\Louise Hoffsten - Looking for Mr. God (2012) [FLAC]\07 - Hey Mr. Hyde.wav
     Peak level 100.0 %
     Extraction speed 6.7 X
     Track quality 100.0 %
     Test CRC A6288774
     Copy CRC A6288774
     Accurately ripped (confidence 2)  [731317C4]  (AR v1)
     Copy OK
Track  8
     Filename D:\Music\EAC Rips\Louise Hoffsten - Looking for Mr. God (2012) [FLAC]\08 - Tough Love.wav
     Peak level 100.0 %
     Extraction speed 5.8 X
     Track quality 99.9 %
     Test CRC 7AFBF1D0
     Copy CRC 7AFBF1D0
     Accurately ripped (confidence 2)  [F6B611DB]  (AR v1)
     Copy OK
Track  9
     Filename D:\Music\EAC Rips\Louise Hoffsten - Looking for Mr. God (2012) [FLAC]\09 - Empty Air.wav
     Peak level 100.0 %
     Extraction speed 7.2 X
     Track quality 100.0 %
     Test CRC D524BD82
     Copy CRC D524BD82
     Accurately ripped (confidence 2)  [78325F58]  (AR v1)
     Copy OK
Track 10
     Filename D:\Music\EAC Rips\Louise Hoffsten - Looking for Mr. God (2012) [FLAC]\10 - Not Today.wav
     Peak level 100.0 %
     Extraction speed 5.9 X
     Track quality 99.9 %
     Test CRC F1AD2D3C
     Copy CRC F1AD2D3C
     Accurately ripped (confidence 2)  [B68E7C84]  (AR v1)
     Copy OK
Track 11
     Filename D:\Music\EAC Rips\Louise Hoffsten - Looking for Mr. God (2012) [FLAC]\11 - I Fall Down.wav
     Peak level 100.0 %
     Extraction speed 7.9 X
     Track quality 100.0 %
     Test CRC 2FF79E99
     Copy CRC 2FF79E99
     Accurately ripped (confidence 2)  [21755B4A]  (AR v1)
     Copy OK
All tracks accurately ripped
No errors occurred
End of status report
---- CUETools DB Plugin V2.1.3
[CTDB TOCID: r89xmv1qOMPAnPN3jd50QnAp16s-] found, Submit result: unrecognized or virtual drive
[ad6ee6da] (1/1) Accurately ripped
==== Log checksum 0EAD417C2893D6636B013A3A2D2244896152C956B2415E19F8FCDA7F61C80BF5 ====
Код:
REM GENRE Blues
REM DATE 2012
REM DISCID 8309630B
REM COMMENT "ExactAudioCopy v1.0b3"
PERFORMER "Louise Hoffsten"
TITLE "Looking for Mr. God"
FILE "01 - I'll Get By.wav" WAVE
  TRACK 01 AUDIO
    TITLE "I'll Get By"
    PERFORMER "Louise Hoffsten"
    INDEX 01 00:00:00
FILE "02 - Walk with the Rhythm.wav" WAVE
  TRACK 02 AUDIO
    TITLE "Walk with the Rhythm"
    PERFORMER "Louise Hoffsten"
    INDEX 01 00:00:00
FILE "03 - Looking for Mr. God.wav" WAVE
  TRACK 03 AUDIO
    TITLE "Looking for Mr. God"
    PERFORMER "Louise Hoffsten"
    INDEX 01 00:00:00
FILE "04 - An Empty Valentine's Box.wav" WAVE
  TRACK 04 AUDIO
    TITLE "An Empty Valentine's Box"
    PERFORMER "Louise Hoffsten"
    INDEX 01 00:00:00
FILE "05 - Don't Steal My Dreams.wav" WAVE
  TRACK 05 AUDIO
    TITLE "Don't Steal My Dreams"
    PERFORMER "Louise Hoffsten"
    INDEX 01 00:00:00
FILE "06 - Go for Love.wav" WAVE
  TRACK 06 AUDIO
    TITLE "Go for Love"
    PERFORMER "Louise Hoffsten"
    INDEX 01 00:00:00
FILE "07 - Hey Mr. Hyde.wav" WAVE
  TRACK 07 AUDIO
    TITLE "Hey Mr. Hyde"
    PERFORMER "Louise Hoffsten"
    INDEX 01 00:00:00
FILE "08 - Tough Love.wav" WAVE
  TRACK 08 AUDIO
    TITLE "Tough Love"
    PERFORMER "Louise Hoffsten"
    INDEX 01 00:00:00
FILE "09 - Empty Air.wav" WAVE
  TRACK 09 AUDIO
    TITLE "Empty Air"
    PERFORMER "Louise Hoffsten"
    INDEX 01 00:00:00
FILE "10 - Not Today.wav" WAVE
  TRACK 10 AUDIO
    TITLE "Not Today"
    PERFORMER "Louise Hoffsten"
    INDEX 01 00:00:00
FILE "11 - I Fall Down.wav" WAVE
  TRACK 11 AUDIO
    TITLE "I Fall Down"
    PERFORMER "Louise Hoffsten"
    INDEX 01 00:00:00
Правила, инструкции, FAQ!!!
Торрент  Добавлен [26 мар 2019, 20:48] Скачать торрент Магнет ссылка
Скачать торрент
[ Размер 20.35 КБ / Просмотров 2 ]

Статус
Проверен 
 
Размер  244.53 МБ
Приватный: Нет (DHT включён)
.torrent скачан  1
 


     Отправить личное сообщение
   
Страница 1 из 1
Показать сообщения за:  Поле сортировки  
Начать новую тему Ответить на тему


Сейчас этот форум просматривают: нет зарегистрированных пользователей и гости: 0


Вы не можете начинать темы
Вы не можете отвечать на сообщения
Вы не можете редактировать свои сообщения
Вы не можете удалять свои сообщения
Вы не можете добавлять вложения

Перейти:  
cron