Начать новую тему Ответить на тему
Статистика раздачи
Размер: 299.51 МБ | Добавлен: 26 мар 2019, 19:29 | Скачали: 0
Сидеров: 0  [0 байт/сек]    Личеров: 0  [0 байт/сек]
Пред. тема | След. тема 

Автор
Сообщение

СообщениеДобавлено: 26 мар 2019, 19:29 

Ответить с цитатой 

Lombard / Wolne od cła
Жанр: Pop-Rock
Страна-производитель диска: Poland
Год издания: 1999 (1984)
Издатель (лейбл): Koch International
Номер по каталогу: 52004-2
Страна: Poland
Аудиокодек: FLAC (*.flac)
Тип рипа: tracks+.cue
Битрейт аудио: lossless
Продолжительность: 00:49:49
Источник (релизер): Польский треккер - спасибо rjk
Наличие сканов в содержимом раздачи: нет
Треклист:
01 - Wolne od cła
02 - Miny na pokaz czyny za grosz
03 - Dwa słowa, dwa światy
04 - Adriatyk, ocean gorący
05 - Aku - Hara, kraj ze snu
06 - Kradzież nie popłaca
07 - Skąd ja to znam
08 - Dalej, coraz dalej
09 - Szklana pogoda
10 - Droga pani z TV
11 - Posłanie do pana A
Код:
Exact Audio Copy V0.99 prebeta 5 from 4. May 2009
EAC extraction logfile from 8. May 2010, 11:52
Lombard / Wolne od cła
Used drive  : LITE-ON DVDRW SOHW-1633S   Adapter: 0  ID: 0
Read mode               : Secure
Utilize accurate stream : Yes
Defeat audio cache      : Yes
Make use of C2 pointers : No
Read offset correction                      : 12
Overread into Lead-In and Lead-Out          : No
Fill up missing offset samples with silence : Yes
Delete leading and trailing silent blocks   : No
Null samples used in CRC calculations       : Yes
Used interface                              : Installed external ASPI interface
Gap handling                                : Appended to previous track
Used output format              : User Defined Encoder
Selected bitrate                : 1024 kBit/s
Quality                         : High
Add ID3 tag                     : Yes
Command line compressor         : C:\Program Files\Exact Audio Copy\Flac\flac.exe
Additional command line options : -8 -T "artist=%a" -T "title=%t" -T "album=%g" -T "date=%y" -T "tracknumber=%n" -T "genre=%m" %s
TOC of the extracted CD
     Track |   Start  |  Length  | Start sector | End sector
    ---------------------------------------------------------
        1  |  0:00.00 |  3:11.39 |         0    |    14363
        2  |  3:11.39 |  3:08.50 |     14364    |    28513
        3  |  6:20.14 |  6:44.67 |     28514    |    58880
        4  | 13:05.06 |  6:41.37 |     58881    |    88992
        5  | 19:46.43 |  4:28.74 |     88993    |   109166
        6  | 24:15.42 |  5:09.57 |    109167    |   132398
        7  | 29:25.24 |  3:57.12 |    132399    |   150185
        8  | 33:22.36 |  4:33.68 |    150186    |   170728
        9  | 37:56.29 |  3:30.00 |    170729    |   186478
       10  | 41:26.29 |  4:02.08 |    186479    |   204636
       11  | 45:28.37 |  4:20.41 |    204637    |   224177
Track  1
     Filename E:\Z Audio\EAC\Lombard - Wolne od cła\01 - Wolne od cła.wav
     Pre-gap length  0:00:02.00
     Peak level 100.0 %
     Track quality 100.0 %
     Test CRC C42F2D09
     Copy CRC C42F2D09
     Cannot be verified as accurate (confidence 1)  [FE69EF05], AccurateRip returned [B1674FF5]
     Copy OK
Track  2
     Filename E:\Z Audio\EAC\Lombard - Wolne od cła\02 - Miny na pokaz czyny za grosz.wav
     Pre-gap length  0:00:01.60
     Peak level 100.0 %
     Track quality 100.0 %
     Test CRC 7946BF0B
     Copy CRC 7946BF0B
     Cannot be verified as accurate (confidence 1)  [82D23BA5], AccurateRip returned [FDB75215]
     Copy OK
Track  3
     Filename E:\Z Audio\EAC\Lombard - Wolne od cła\03 - Dwa słowa, dwa światy.wav
     Pre-gap length  0:00:01.60
     Peak level 78.2 %
     Track quality 100.0 %
     Test CRC A4C0140C
     Copy CRC A4C0140C
     Cannot be verified as accurate (confidence 1)  [A4168983], AccurateRip returned [773D5343]
     Copy OK
Track  4
     Filename E:\Z Audio\EAC\Lombard - Wolne od cła\04 - Adriatyk, ocean gorący.wav
     Pre-gap length  0:00:01.60
     Peak level 71.9 %
     Track quality 100.0 %
     Test CRC 848F1EE1
     Copy CRC 848F1EE1
     Cannot be verified as accurate (confidence 1)  [1E0B3227], AccurateRip returned [83CE056F]
     Copy OK
Track  5
     Filename E:\Z Audio\EAC\Lombard - Wolne od cła\05 - Aku - Hara, kraj ze snu.wav
     Pre-gap length  0:00:01.60
     Peak level 100.0 %
     Track quality 99.9 %
     Test CRC 712A43B6
     Copy CRC 712A43B6
     Cannot be verified as accurate (confidence 1)  [13246925], AccurateRip returned [93682385]
     Copy OK
Track  6
     Filename E:\Z Audio\EAC\Lombard - Wolne od cła\06 - Kradzież nie popłaca.wav
     Pre-gap length  0:00:01.60
     Peak level 100.0 %
     Track quality 100.0 %
     Test CRC F7CE980D
     Copy CRC F7CE980D
     Cannot be verified as accurate (confidence 1)  [36E8079F], AccurateRip returned [B1622357]
     Copy OK
Track  7
     Filename E:\Z Audio\EAC\Lombard - Wolne od cła\07 - Skąd ja to znam.wav
     Pre-gap length  0:00:01.60
     Peak level 100.0 %
     Track quality 100.0 %
     Test CRC 6A58EE12
     Copy CRC 6A58EE12
     Cannot be verified as accurate (confidence 1)  [3872AB5C], AccurateRip returned [4486BF4C]
     Copy OK
Track  8
     Filename E:\Z Audio\EAC\Lombard - Wolne od cła\08 - Dalej, coraz dalej.wav
     Pre-gap length  0:00:01.60
     Peak level 100.0 %
     Track quality 100.0 %
     Test CRC 8DB57FDC
     Copy CRC 8DB57FDC
     Cannot be verified as accurate (confidence 1)  [D324AA1E], AccurateRip returned [A2E186E5]
     Copy OK
Track  9
     Filename E:\Z Audio\EAC\Lombard - Wolne od cła\09 - Szklana pogoda.wav
     Pre-gap length  0:00:01.60
     Peak level 99.9 %
     Track quality 100.0 %
     Test CRC 43D855E0
     Copy CRC 43D855E0
     Cannot be verified as accurate (confidence 1)  [20411548], AccurateRip returned [ADAE31E0]
     Copy OK
Track 10
     Filename E:\Z Audio\EAC\Lombard - Wolne od cła\10 - Droga pani z TV.wav
     Pre-gap length  0:00:01.60
     Peak level 99.9 %
     Track quality 100.0 %
     Test CRC 2F151E57
     Copy CRC 2F151E57
     Cannot be verified as accurate (confidence 1)  [D583CB36], AccurateRip returned [2F9AFEFE]
     Copy OK
Track 11
     Filename E:\Z Audio\EAC\Lombard - Wolne od cła\11 - Posłanie do pana A.wav
     Pre-gap length  0:00:01.60
     Peak level 99.9 %
     Track quality 100.0 %
     Test CRC 269C06FA
     Copy CRC 269C06FA
     Cannot be verified as accurate (confidence 1)  [6F3C5178], AccurateRip returned [1F5CE0BA]
     Copy OK
No tracks could be verified as accurate
You may have a different pressing from the one(s) in the database
No errors occurred
End of status report
Код:
REM GENRE Rock
REM DATE 1999
REM DISCID A50BAD0B
REM COMMENT "ExactAudioCopy v0.99pb5"
PERFORMER "Lombard"
TITLE "Wolne od cła"
FILE "01 - Wolne od cła.flac" WAVE
  TRACK 01 AUDIO
    TITLE "Wolne od cła"
    PERFORMER "Lombard"
    INDEX 01 00:00:00
  TRACK 02 AUDIO
    TITLE "Miny na pokaz czyny za grosz"
    PERFORMER "Lombard"
    INDEX 00 03:09:69
FILE "02 - Miny na pokaz czyny za grosz.flac" WAVE
    INDEX 01 00:00:00
  TRACK 03 AUDIO
    TITLE "Dwa słowa, dwa światy"
    PERFORMER "Lombard"
    INDEX 00 03:07:05
FILE "03 - Dwa słowa, dwa światy.flac" WAVE
    INDEX 01 00:00:00
  TRACK 04 AUDIO
    TITLE "Adriatyk, ocean gorący"
    PERFORMER "Lombard"
    INDEX 00 06:43:22
FILE "04 - Adriatyk, ocean gorący.flac" WAVE
    INDEX 01 00:00:00
  TRACK 05 AUDIO
    TITLE "Aku - Hara, kraj ze snu"
    PERFORMER "Lombard"
    INDEX 00 06:39:67
FILE "05 - Aku - Hara, kraj ze snu.flac" WAVE
    INDEX 01 00:00:00
  TRACK 06 AUDIO
    TITLE "Kradzież nie popłaca"
    PERFORMER "Lombard"
    INDEX 00 04:27:29
FILE "06 - Kradzież nie popłaca.flac" WAVE
    INDEX 01 00:00:00
  TRACK 07 AUDIO
    TITLE "Skąd ja to znam"
    PERFORMER "Lombard"
    INDEX 00 05:08:12
FILE "07 - Skąd ja to znam.flac" WAVE
    INDEX 01 00:00:00
  TRACK 08 AUDIO
    TITLE "Dalej, coraz dalej"
    PERFORMER "Lombard"
    INDEX 00 03:55:42
FILE "08 - Dalej, coraz dalej.flac" WAVE
    INDEX 01 00:00:00
  TRACK 09 AUDIO
    TITLE "Szklana pogoda"
    PERFORMER "Lombard"
    INDEX 00 04:32:23
FILE "09 - Szklana pogoda.flac" WAVE
    INDEX 01 00:00:00
  TRACK 10 AUDIO
    TITLE "Droga pani z TV"
    PERFORMER "Lombard"
    INDEX 00 03:28:30
FILE "10 - Droga pani z TV.flac" WAVE
    INDEX 01 00:00:00
  TRACK 11 AUDIO
    TITLE "Posłanie do pana A"
    PERFORMER "Lombard"
    INDEX 00 04:00:38
FILE "11 - Posłanie do pana A.flac" WAVE
    INDEX 01 00:00:00
Цифровое переиздание третьей пластинки группы 1984 года (треки 1- 8) + бонус (треки 9-11)
Małgorzata Ostrowska – śpiew
Grzegorz Stróżniak – śpiew, instrumenty klawiszowe
Piotr Zander – gitara
Zbigniew Foryś – gitara basowa
Przemysław Pahl – perkusja
Состав в "Posłanie do Pana A":
Małgorzata Ostrowska – śpiew
Grzegorz Stróżniak – śpiew, instrumenty klawiszowe
Piotr Zander – gitara
Krzysztof Szmigiero – gitara
Maurycy Przybyłowicz – gitara basowa
Krzysztof Kuźniak – perkusja
Правила, инструкции, FAQ!!!
Торрент  Добавлен [26 мар 2019, 19:29] Скачать торрент Магнет ссылка
Скачать торрент
[ Размер 13.03 КБ / Просмотров 3 ]

Статус
Проверен 
 
Размер  299.51 МБ
Приватный: Нет (DHT включён)
.torrent скачан  0
 


     Отправить личное сообщение
   
Страница 1 из 1
Показать сообщения за:  Поле сортировки  
Начать новую тему Ответить на тему


Сейчас этот форум просматривают: нет зарегистрированных пользователей и гости: 0


Вы не можете начинать темы
Вы не можете отвечать на сообщения
Вы не можете редактировать свои сообщения
Вы не можете удалять свои сообщения
Вы не можете добавлять вложения

Перейти:  
cron