Начать новую тему Ответить на тему
Статистика раздачи
Размер: 313.73 МБ | Добавлен: 26 мар 2019, 19:29 | Скачали: 0
Сидеров: 0  [0 байт/сек]    Личеров: 0  [0 байт/сек]
Пред. тема | След. тема 

Автор
Сообщение

СообщениеДобавлено: 26 мар 2019, 19:29 

Ответить с цитатой 

Lombard / Kreacje
Жанр: Pop-Rock
Страна-производитель диска: Poland
Год издания: 2000 (1987)
Издатель (лейбл): Koch International
Номер по каталогу: 252008-2
Страна: Poland
Аудиокодек: FLAC (*.flac)
Тип рипа: tracks+.cue
Битрейт аудио: lossless
Продолжительность: 00:47:09
Источник (релизер): Польский треккер - спасибо rjk
Наличие сканов в содержимом раздачи: нет
Треклист:
1. Ocalić serca – 4:20
2. Gino – 3:30
3. Odejść bez pożegnań – 3:50
4. List nocą – 3:40
5. To tylko moment – 4:45
6. Kreacje – frustracje – 4:15
7. Tyle masek nas dzieli – 4:00
8. A dookoła cisza – 5:35
9. Słowa na murze – 4:15
10. Czas przypływu i odpływu – 3:55
11. U mnie żadnych szans – 4:45
Код:
Exact Audio Copy V0.99 prebeta 5 from 4. May 2009
EAC extraction logfile from 11. May 2010, 0:01
Lombard / Kreacje
Used drive  : LITEON  CD-ROM LTN526   Adapter: 0  ID: 1
Read mode               : Secure
Utilize accurate stream : Yes
Defeat audio cache      : Yes
Make use of C2 pointers : No
Read offset correction                      : 600
Overread into Lead-In and Lead-Out          : No
Fill up missing offset samples with silence : Yes
Delete leading and trailing silent blocks   : No
Null samples used in CRC calculations       : Yes
Used interface                              : Installed external ASPI interface
Gap handling                                : Appended to previous track
Used output format              : User Defined Encoder
Selected bitrate                : 1024 kBit/s
Quality                         : High
Add ID3 tag                     : Yes
Command line compressor         : C:\Program Files\Exact Audio Copy\Flac\flac.exe
Additional command line options : -8 -T "artist=%a" -T "title=%t" -T "album=%g" -T "date=%y" -T "tracknumber=%n" -T "genre=%m" %s
TOC of the extracted CD
     Track |   Start  |  Length  | Start sector | End sector
    ---------------------------------------------------------
        1  |  0:00.00 |  4:27.52 |         0    |    20076
        2  |  4:27.52 |  3:36.60 |     20077    |    36336
        3  |  8:04.37 |  3:55.65 |     36337    |    54026
        4  | 12:00.27 |  3:46.21 |     54027    |    70997
        5  | 15:46.48 |  4:35.57 |     70998    |    91679
        6  | 20:22.30 |  4:18.06 |     91680    |   111035
        7  | 24:40.36 |  4:05.68 |    111036    |   129478
        8  | 28:46.29 |  5:38.17 |    129479    |   154845
        9  | 34:24.46 |  4:23.39 |    154846    |   174609
       10  | 38:48.10 |  4:04.54 |    174610    |   192963
       11  | 42:52.64 |  4:16.08 |    192964    |   212171
Track  1
     Filename E:\Z Audio\EAC\Lombard - Kreacje\01 - Ocalić serca.wav
     Pre-gap length  0:00:02.00
     Peak level 96.6 %
     Track quality 100.0 %
     Test CRC 425BE6EC
     Copy CRC 425BE6EC
     Track not present in AccurateRip database
     Copy OK
Track  2
     Filename E:\Z Audio\EAC\Lombard - Kreacje\02 - Gino.wav
     Pre-gap length  0:00:02.00
     Peak level 93.6 %
     Track quality 99.9 %
     Test CRC 6F84CA1C
     Copy CRC 6F84CA1C
     Track not present in AccurateRip database
     Copy OK
Track  3
     Filename E:\Z Audio\EAC\Lombard - Kreacje\03 - Odejść bez pożegnań.wav
     Pre-gap length  0:00:02.00
     Peak level 100.0 %
     Track quality 100.0 %
     Test CRC 6C059ADA
     Copy CRC 6C059ADA
     Track not present in AccurateRip database
     Copy OK
Track  4
     Filename E:\Z Audio\EAC\Lombard - Kreacje\04 - List nocą.wav
     Pre-gap length  0:00:02.00
     Peak level 94.4 %
     Track quality 100.0 %
     Test CRC 4265720B
     Copy CRC 4265720B
     Track not present in AccurateRip database
     Copy OK
Track  5
     Filename E:\Z Audio\EAC\Lombard - Kreacje\05 - To tylko moment.wav
     Pre-gap length  0:00:02.00
     Peak level 93.9 %
     Track quality 100.0 %
     Test CRC 3BFBF372
     Copy CRC 3BFBF372
     Track not present in AccurateRip database
     Copy OK
Track  6
     Filename E:\Z Audio\EAC\Lombard - Kreacje\06 - Kreacje - frustracje.wav
     Pre-gap length  0:00:02.00
     Peak level 96.4 %
     Track quality 100.0 %
     Test CRC 602293C1
     Copy CRC 602293C1
     Track not present in AccurateRip database
     Copy OK
Track  7
     Filename E:\Z Audio\EAC\Lombard - Kreacje\07 - Tyle masek nas dzieli.wav
     Pre-gap length  0:00:02.00
     Peak level 100.0 %
     Track quality 100.0 %
     Test CRC 4E2ADB60
     Copy CRC 4E2ADB60
     Track not present in AccurateRip database
     Copy OK
Track  8
     Filename E:\Z Audio\EAC\Lombard - Kreacje\08 - A dokoła cisza.wav
     Pre-gap length  0:00:02.00
     Peak level 94.8 %
     Track quality 100.0 %
     Test CRC 51CC3C1F
     Copy CRC 51CC3C1F
     Track not present in AccurateRip database
     Copy OK
Track  9
     Filename E:\Z Audio\EAC\Lombard - Kreacje\09 - Słowa na murze.wav
     Pre-gap length  0:00:02.00
     Peak level 97.6 %
     Track quality 99.8 %
     Test CRC 0D4D5A54
     Copy CRC A8A1AAC7
     Track not present in AccurateRip database
     Copy OK
Track 10
     Filename E:\Z Audio\EAC\Lombard - Kreacje\10 - Czas przypływu i odpływu.wav
     Pre-gap length  0:00:02.00
     Peak level 89.1 %
     Track quality 99.9 %
     Test CRC BCC1D488
     Copy CRC BCC1D488
     Track not present in AccurateRip database
     Copy OK
Track 11
     Filename E:\Z Audio\EAC\Lombard - Kreacje\11 - U mnie żadnych szans.wav
     Pre-gap length  0:00:02.00
     Peak level 97.9 %
     Track quality 99.8 %
     Test CRC 7AF2CF68
     Copy CRC 7AF2CF68
     Track not present in AccurateRip database
     Copy OK
None of the tracks are present in the AccurateRip database
No errors occurred
End of status report
Код:
REM GENRE Rock
REM DATE 2000
REM DISCID 970B0C0B
REM COMMENT "ExactAudioCopy v0.99pb5"
PERFORMER "Lombard"
TITLE "Kreacje"
FILE "01 - Ocalić serca.flac" WAVE
  TRACK 01 AUDIO
    TITLE "Ocalić serca"
    PERFORMER "Lombard"
    FLAGS DCP
    INDEX 01 00:00:00
  TRACK 02 AUDIO
    TITLE "Gino"
    PERFORMER "Lombard"
    FLAGS DCP
    INDEX 00 04:25:52
FILE "02 - Gino.flac" WAVE
    INDEX 01 00:00:00
  TRACK 03 AUDIO
    TITLE "Odejść bez pożegnań"
    PERFORMER "Lombard"
    FLAGS DCP
    INDEX 00 03:34:60
FILE "03 - Odejść bez pożegnań.flac" WAVE
    INDEX 01 00:00:00
  TRACK 04 AUDIO
    TITLE "List nocą"
    PERFORMER "Lombard"
    FLAGS DCP
    INDEX 00 03:53:65
FILE "04 - List nocą.flac" WAVE
    INDEX 01 00:00:00
  TRACK 05 AUDIO
    TITLE "To tylko moment"
    PERFORMER "Lombard"
    FLAGS DCP
    INDEX 00 03:44:21
FILE "05 - To tylko moment.flac" WAVE
    INDEX 01 00:00:00
  TRACK 06 AUDIO
    TITLE "Kreacje - frustracje"
    PERFORMER "Lombard"
    FLAGS DCP
    INDEX 00 04:33:57
FILE "06 - Kreacje - frustracje.flac" WAVE
    INDEX 01 00:00:00
  TRACK 07 AUDIO
    TITLE "Tyle masek nas dzieli"
    PERFORMER "Lombard"
    FLAGS DCP
    INDEX 00 04:16:06
FILE "07 - Tyle masek nas dzieli.flac" WAVE
    INDEX 01 00:00:00
  TRACK 08 AUDIO
    TITLE "A dokoła cisza"
    PERFORMER "Lombard"
    FLAGS DCP
    INDEX 00 04:03:68
FILE "08 - A dokoła cisza.flac" WAVE
    INDEX 01 00:00:00
  TRACK 09 AUDIO
    TITLE "Słowa na murze"
    PERFORMER "Lombard"
    FLAGS DCP
    INDEX 00 05:36:17
FILE "09 - Słowa na murze.flac" WAVE
    INDEX 01 00:00:00
  TRACK 10 AUDIO
    TITLE "Czas przypływu i odpływu"
    PERFORMER "Lombard"
    FLAGS DCP
    INDEX 00 04:21:39
FILE "10 - Czas przypływu i odpływu.flac" WAVE
    INDEX 01 00:00:00
  TRACK 11 AUDIO
    TITLE "U mnie żadnych szans"
    PERFORMER "Lombard"
    FLAGS DCP
    INDEX 00 04:02:54
FILE "11 - U mnie żadnych szans.flac" WAVE
    INDEX 01 00:00:00
Цифровое переиздание седьмой студийной пластинки группы 1987 года (треки 1- 9) + бонус (треки 10,11)
Grzegorz Stróżniak – śpiew, instrumenty klawiszowe
Małgorzata Ostrowska – śpiew
Piotr Zander – gitara
Henryk Baran – gitara basowa
Wojciech Anioła – perkusja
Правила, инструкции, FAQ!!!
Торрент  Добавлен [26 мар 2019, 19:29] Скачать торрент Магнет ссылка
Скачать торрент
[ Размер 13.53 КБ / Просмотров 2 ]

Статус
Проверен 
 
Размер  313.73 МБ
Приватный: Нет (DHT включён)
.torrent скачан  0
 


     Отправить личное сообщение
   
Страница 1 из 1
Показать сообщения за:  Поле сортировки  
Начать новую тему Ответить на тему


Сейчас этот форум просматривают: нет зарегистрированных пользователей и гости: 0


Вы не можете начинать темы
Вы не можете отвечать на сообщения
Вы не можете редактировать свои сообщения
Вы не можете удалять свои сообщения
Вы не можете добавлять вложения

Перейти:  
cron