Начать новую тему Ответить на тему
Статистика раздачи
Размер: 230.16 МБ | Добавлен: 26 мар 2019, 20:38 | Скачали: 0
Сидеров: 0  [0 байт/сек]    Личеров: 0  [0 байт/сек]
Пред. тема | След. тема 

Автор
Сообщение

СообщениеДобавлено: 26 мар 2019, 20:38 

Ответить с цитатой 

Lisa Dal Bello / Pretty Girls + 1
Жанр: Pop Rock
Носитель: CD
Страна-производитель диска (релиза): Japan
Год издания: 1978 (Reissue 2011)
Издатель (лейбл): Vivid Sound Corporation
Номер по каталогу: VSCD-3519
Страна исполнителя (группы): Canada
Аудиокодек: FLAC (*.flac)
Тип рипа: image+.cue
Битрейт аудио: lossless
Продолжительность: 00:41:55
Источник (релизер): собственный диск
Наличие сканов в содержимом раздачи: нет
Треклист:
1. Pretty Girls (3:06)
2. Still In Love (3:30)
3. Hollywood (3:35)
4. (Is There) Anything I Can Do (3:48)
5. Talisman (4:31)
6. Make Up Your Mind Paula (3:10)
7. Miracle Maker (3:36)
8. Lost Without Your Love (3:49)
9. Dreams (Are For Lovers) (3:43)
10. Make It Last (4:04)
11. Pretty Girls (Special 12" Disco Version) (5:03)
Код:
Exact Audio Copy V1.0 beta 3 from 29. August 2011
Отчёт EAC об извлечении, выполненном 7. февраля 2015, 15:56
Lisa Dal Bello / Pretty Girls
Дисковод: PIONEER BD-RW   BDR-209D   Adapter: 0  ID: 0
Режим чтения                 : Достоверность
Использование точного потока : Да
Отключение кэша аудио        : Да
Использование указателей C2  : Нет
Коррекция смещения при чтении                     : 667
Способность читать области Lead-in и Lead-out     : Нет
Заполнение пропущенных сэмплов тишиной            : Да
Удаление блоков с тишиной в начале и конце        : Нет
При вычислениях CRC использовались нулевые сэмплы : Да
Интерфейс                                         : Встроенный Win32-интерфейс для Win NT/2000
Выходной формат          : Пользовательский кодировщик
Выбранный битрейт        : 128 kBit/s
Качество                 : Высокий
Добавление ID3-тега      : Нет
Утилита сжатия           : C:\Program Files (x86)\Exact Audio Copy\Flac\flac.exe
Дополнительные параметры : -V -8 -T "Date=%year%" -T "Genre=%genre%" %source%
TOC извлечённого CD
     Трек |   Старт  | Длительность | Начальный сектор | Конечный сектор
    ---------------------------------------------------------------------
       1  |  0:00.00 |    3:06.00   |           0      |      13949
       2  |  3:06.00 |    3:30.13   |       13950      |      29712
       3  |  6:36.13 |    3:35.18   |       29713      |      45855
       4  | 10:11.31 |    3:47.72   |       45856      |      62952
       5  | 13:59.28 |    4:30.67   |       62953      |      83269
       6  | 18:30.20 |    3:10.51   |       83270      |      97570
       7  | 21:40.71 |    3:35.73   |       97571      |     113768
       8  | 25:16.69 |    3:48.54   |      113769      |     130922
       9  | 29:05.48 |    3:42.55   |      130923      |     147627
      10  | 32:48.28 |    4:04.42   |      147628      |     165969
      11  | 36:52.70 |    5:02.20   |      165970      |     188639
Характеристики диапазона извлечения и сообщения об ошибках
Выбранный диапазон
     Имя файла D:\Flac\Новая папка\Lisa Dal Bello - Pretty Girls.wav
     Пиковый уровень 96.9 %
     Скорость извлечения 7.5 X
     Качество диапазона 100.0 %
     CRC теста D8351ACB
     CRC копии D8351ACB
     Копирование... OK
Ошибок не произошло
AccurateRip: сводка
Трек  1  отсутствует в базе данных
Трек  2  отсутствует в базе данных
Трек  3  отсутствует в базе данных
Трек  4  отсутствует в базе данных
Трек  5  отсутствует в базе данных
Трек  6  отсутствует в базе данных
Трек  7  отсутствует в базе данных
Трек  8  отсутствует в базе данных
Трек  9  отсутствует в базе данных
Трек 10  отсутствует в базе данных
Трек 11  отсутствует в базе данных
Ни одного трека нет в базе AccurateRip
Конец отчёта
==== Контрольная сумма отчёта 92FA1D6805FE9A166354BEFE32394346E149C8EF4953EA759432EEA4847E700E ====
Правила, инструкции, FAQ!!!
Торрент  Добавлен [26 мар 2019, 20:38] Скачать торрент Магнет ссылка
Скачать торрент
[ Размер 18.75 КБ / Просмотров 1 ]

Статус
Проверен 
 
Размер  230.16 МБ
Приватный: Нет (DHT включён)
.torrent скачан  0
 


     Отправить личное сообщение
   
Страница 1 из 1
Показать сообщения за:  Поле сортировки  
Начать новую тему Ответить на тему


Сейчас этот форум просматривают: нет зарегистрированных пользователей и гости: 0


Вы не можете начинать темы
Вы не можете отвечать на сообщения
Вы не можете редактировать свои сообщения
Вы не можете удалять свои сообщения
Вы не можете добавлять вложения

Перейти:  
cron