Начать новую тему Ответить на тему
Статистика раздачи
Размер: 263.03 МБ | Добавлен: 26 мар 2019, 20:38 | Скачали: 0
Сидеров: 0  [0 байт/сек]    Личеров: 0  [0 байт/сек]
Пред. тема | След. тема 

Автор
Сообщение

СообщениеДобавлено: 26 мар 2019, 20:38 

Ответить с цитатой 

Lisa Dal Bello / Lisa Dal Bello
Жанр: Pop Rock
Носитель: CD
Страна-производитель диска (релиза): Japan
Год издания: 1977 (Reissue 2000)
Издатель (лейбл): Universal International ‎
Номер по каталогу: UICY-3059
Страна исполнителя (группы): Canada
Аудиокодек: FLAC (*.flac)
Тип рипа: image+.cue
Битрейт аудио: lossless
Продолжительность: 00:39:19
Источник (релизер): собственный диск
Наличие сканов в содержимом раздачи: нет
Треклист:
1. Look At Me (Millions Of People) (3:36)
2. (Don't Want To) Stand In Your Way (3:48)
3. My Mind's Made Up (3:59)
4. Snow White (3:03)
5. Touch Me (4:48)
6. Talk It Over (Even Though My Body's Cold) (4:13)
7. Stay With Me (3:57)
8. Day Dream (3:43)
9. Milk & Honey (3:19)
10. Everthing Money Can Buy (4:53)
Код:
Exact Audio Copy V1.0 beta 3 from 29. August 2011
Отчёт EAC об извлечении, выполненном 7. февраля 2015, 16:14
Lisa Dal Bello / Lisa Dal Bello
Дисковод: PIONEER BD-RW   BDR-209D   Adapter: 0  ID: 0
Режим чтения                 : Достоверность
Использование точного потока : Да
Отключение кэша аудио        : Да
Использование указателей C2  : Нет
Коррекция смещения при чтении                     : 667
Способность читать области Lead-in и Lead-out     : Нет
Заполнение пропущенных сэмплов тишиной            : Да
Удаление блоков с тишиной в начале и конце        : Нет
При вычислениях CRC использовались нулевые сэмплы : Да
Интерфейс                                         : Встроенный Win32-интерфейс для Win NT/2000
Выходной формат          : Пользовательский кодировщик
Выбранный битрейт        : 128 kBit/s
Качество                 : Высокий
Добавление ID3-тега      : Нет
Утилита сжатия           : C:\Program Files (x86)\Exact Audio Copy\Flac\flac.exe
Дополнительные параметры : -V -8 -T "Date=%year%" -T "Genre=%genre%" %source%
TOC извлечённого CD
     Трек |   Старт  | Длительность | Начальный сектор | Конечный сектор
    ---------------------------------------------------------------------
       1  |  0:00.00 |    3:36.65   |           0      |      16264
       2  |  3:36.65 |    3:47.57   |       16265      |      33346
       3  |  7:24.47 |    3:59.05   |       33347      |      51276
       4  | 11:23.52 |    3:02.25   |       51277      |      64951
       5  | 14:26.02 |    4:48.63   |       64952      |      86614
       6  | 19:14.65 |    4:12.35   |       86615      |     105549
       7  | 23:27.25 |    3:57.42   |      105550      |     123366
       8  | 27:24.67 |    3:42.45   |      123367      |     140061
       9  | 31:07.37 |    3:18.53   |      140062      |     154964
      10  | 34:26.15 |    4:53.37   |      154965      |     176976
Характеристики диапазона извлечения и сообщения об ошибках
Выбранный диапазон
     Имя файла D:\Flac\Новая папка\Lisa Dal Bello - Lisa Dal Bello.wav
     Пиковый уровень 97.9 %
     Скорость извлечения 7.0 X
     Качество диапазона 100.0 %
     CRC теста 324A4A8A
     CRC копии 324A4A8A
     Копирование... OK
Ошибок не произошло
AccurateRip: сводка
Трек  1  : извлечено точно (доверие 1)  [FF55A8CB]  (AR v2)
Трек  2  : извлечено точно (доверие 1)  [628A7AB6]  (AR v2)
Трек  3  : извлечено точно (доверие 1)  [1501B3DB]  (AR v2)
Трек  4  : извлечено точно (доверие 1)  [48533905]  (AR v2)
Трек  5  : извлечено точно (доверие 1)  [81425015]  (AR v2)
Трек  6  : извлечено точно (доверие 1)  [09A387E0]  (AR v2)
Трек  7  : извлечено точно (доверие 1)  [BFEA2DDF]  (AR v2)
Трек  8  : извлечено точно (доверие 1)  [09D11585]  (AR v2)
Трек  9  : извлечено точно (доверие 1)  [203FDAE1]  (AR v2)
Трек 10  : извлечено точно (доверие 1)  [E2633458]  (AR v2)
Все треки извлечены точно
Конец отчёта
==== Контрольная сумма отчёта E9362DBD7B165B40FA5A51D9A82C64646C3E25C551723C96FA0295B83DDAC3DB ====
Правила, инструкции, FAQ!!!
Торрент  Добавлен [26 мар 2019, 20:38] Скачать торрент Магнет ссылка
Скачать торрент
[ Размер 11.22 КБ / Просмотров 3 ]

Статус
Проверен 
 
Размер  263.03 МБ
Приватный: Нет (DHT включён)
.torrent скачан  0
 


     Отправить личное сообщение
   
Страница 1 из 1
Показать сообщения за:  Поле сортировки  
Начать новую тему Ответить на тему


Сейчас этот форум просматривают: нет зарегистрированных пользователей и гости: 0


Вы не можете начинать темы
Вы не можете отвечать на сообщения
Вы не можете редактировать свои сообщения
Вы не можете удалять свои сообщения
Вы не можете добавлять вложения

Перейти:  
cron