Начать новую тему Ответить на тему
Статистика раздачи
Размер: 228.28 МБ | Добавлен: 26 мар 2019, 20:38 | Скачали: 0
Сидеров: 0  [0 байт/сек]    Личеров: 0  [0 байт/сек]
Пред. тема | След. тема 

Автор
Сообщение

СообщениеДобавлено: 26 мар 2019, 20:38 

Ответить с цитатой 

Lisa Dal Bello / Drastic Measures
Жанр: Pop Rock
Носитель: CD
Страна-производитель диска (релиза): Canada
Год издания: 1981 (Reissue 2003)
Издатель (лейбл): EMI Music Canada
Номер по каталогу: 72435-24696-2-8
Страна исполнителя (группы): Canada
Аудиокодек: FLAC (*.flac)
Тип рипа: image+.cue
Битрейт аудио: lossless
Продолжительность: 00:34:20
Источник (релизер): собственный диск
Наличие сканов в содержимом раздачи: нет
Треклист:
1. Never Get To Heaven (3:01)
2. You Could Be Good For Me (3:21)
3. Just Like You (3:22)
4. Princess Telephone (3:27)
5. She Wants To Know (3:34)
6. What Your Mama Don't Know (2:52)
7. It's Over (3:25)
8. Bad Timing (3:04)
9. Dr. Noble (3:33)
10. Stereo Madness (4:39)
Код:
Exact Audio Copy V1.0 beta 3 from 29. August 2011
Отчёт EAC об извлечении, выполненном 7. февраля 2015, 16:33
Lisa DalBello / Drastic Measures
Дисковод: PIONEER BD-RW   BDR-209D   Adapter: 0  ID: 0
Режим чтения                 : Достоверность
Использование точного потока : Да
Отключение кэша аудио        : Да
Использование указателей C2  : Нет
Коррекция смещения при чтении                     : 667
Способность читать области Lead-in и Lead-out     : Нет
Заполнение пропущенных сэмплов тишиной            : Да
Удаление блоков с тишиной в начале и конце        : Нет
При вычислениях CRC использовались нулевые сэмплы : Да
Интерфейс                                         : Встроенный Win32-интерфейс для Win NT/2000
Выходной формат          : Пользовательский кодировщик
Выбранный битрейт        : 128 kBit/s
Качество                 : Высокий
Добавление ID3-тега      : Нет
Утилита сжатия           : C:\Program Files (x86)\Exact Audio Copy\Flac\flac.exe
Дополнительные параметры : -V -8 -T "Date=%year%" -T "Genre=%genre%" %source%
TOC извлечённого CD
     Трек |   Старт  | Длительность | Начальный сектор | Конечный сектор
    ---------------------------------------------------------------------
       1  |  0:00.00 |    3:01.10   |           0      |      13584
       2  |  3:01.10 |    3:21.10   |       13585      |      28669
       3  |  6:22.20 |    3:22.00   |       28670      |      43819
       4  |  9:44.20 |    3:27.07   |       43820      |      59351
       5  | 13:11.27 |    3:34.08   |       59352      |      75409
       6  | 16:45.35 |    2:52.02   |       75410      |      88311
       7  | 19:37.37 |    3:25.08   |       88312      |     103694
       8  | 23:02.45 |    3:04.22   |      103695      |     117516
       9  | 26:06.67 |    3:33.20   |      117517      |     133511
      10  | 29:40.12 |    4:40.43   |      133512      |     154554
Характеристики диапазона извлечения и сообщения об ошибках
Выбранный диапазон
     Имя файла D:\Flac\Новая папка\Lisa DalBello - Drastic Measures.wav
     Пиковый уровень 100.0 %
     Скорость извлечения 6.7 X
     Качество диапазона 99.9 %
     CRC теста C82E99CB
     CRC копии C82E99CB
     Копирование... OK
Ошибок не произошло
AccurateRip: сводка
Трек  1  : извлечено точно (доверие 1)  [FFE7A309]  (AR v2)
Трек  2  : извлечено точно (доверие 1)  [491ECD20]  (AR v2)
Трек  3  : извлечено точно (доверие 1)  [30E02AD1]  (AR v2)
Трек  4  : извлечено точно (доверие 1)  [A9786E96]  (AR v2)
Трек  5  : извлечено точно (доверие 1)  [A6D10244]  (AR v2)
Трек  6  : извлечено точно (доверие 1)  [EE021A8F]  (AR v2)
Трек  7  : извлечено точно (доверие 1)  [490F342F]  (AR v2)
Трек  8  : извлечено точно (доверие 1)  [62B53EA6]  (AR v2)
Трек  9  : извлечено точно (доверие 1)  [67AE28FC]  (AR v2)
Трек 10  : извлечено точно (доверие 1)  [FA0E384A]  (AR v2)
Все треки извлечены точно
Конец отчёта
==== Контрольная сумма отчёта AE6EBF91C84C50CADF8BA7F9A8EF501B60961F2E26CD889A0BDD55080FA71B56 ====
Правила, инструкции, FAQ!!!
Торрент  Добавлен [26 мар 2019, 20:38] Скачать торрент Магнет ссылка
Скачать торрент
[ Размер 18.65 КБ / Просмотров 0 ]

Статус
Проверен 
 
Размер  228.28 МБ
Приватный: Нет (DHT включён)
.torrent скачан  0
 


     Отправить личное сообщение
   
Страница 1 из 1
Показать сообщения за:  Поле сортировки  
Начать новую тему Ответить на тему


Сейчас этот форум просматривают: нет зарегистрированных пользователей и гости: 0


Вы не можете начинать темы
Вы не можете отвечать на сообщения
Вы не можете редактировать свои сообщения
Вы не можете удалять свои сообщения
Вы не можете добавлять вложения

Перейти:  
cron
cron